Одержимость / In-gan-jung-dok (Тхэ-у Ким / Dae-woo Kim) [2014, Корея Южная, Драма, WEBRip] DVO

Ответить на тему
 
Автор Сообщение

user ®

Стаж: 11 лет

Сообщений: 15151

Пост Пост: #1 от 27-Июн-2014 09:20

[Цитировать]

Одержимость / In-gan-jung-dok
Страна: Корея Южная
Жанр: Драма
Год выпуска: 2014
Продолжительность: 02:12:50
Перевод: Любительский (двухголосый закадровый) Ольга Гринтиева и Константин Романов
Cубтитры: нет
Режиссер: Тхэ-у Ким / Dae-woo Kim
В ролях: Сон Сын Хон, Чо Ё Чжон, Он Чжу Ван, Хе-джин Ю, Чжон Хе Чжин, Пэ Сон У, Тхэ-ку Ом, Вон-чжун Чжон, Ким Хе На
Описание: 1969 год, война во Вьетнаме подходит к концу, офицер и герой войны — полковник Ким Чжин-Пён собирается получить звание генерала. Успехи на службе, счастливый брак, красивая жена — все это не может оставить равнодушным завистников. Но на самом деле, его привязанность к своей жене ослабла, а из-за войны он страдает от посттравматического синдрома. Однажды, Чжин-Пён сталкивается Га Хён — женой своего капитана, и влюбляется настолько сильно, что готов отказаться от всего, чего добился…
Сэмпл: http://multi-up.com/982780
Качество видео: WEBRip
Формат видео: AVI
Видео: 720x384 (1.88:1), 23.976 fps, XviD build 50 ~1276 kbps avg, 0.19 bit/pixel
Аудио: 48 kHz, MPEG Layer 3, 2 ch, ~192.00 kbps avg
MediaInfo
Формат : AVI
Формат/Информация : Audio Video Interleave
Размер файла : 1,37 Гбайт
Продолжительность : 2 ч. 12 м.
Общий поток : 1478 Кбит/сек
Программа кодирования : VirtualDubMod 1.5.10.3 | www.virtualdub-fr.org || (build 2550/release)
Библиотека кодирования : VirtualDubMod build 2550/release
Видео
Идентификатор : 0
Формат : MPEG-4 Visual
Профиль формата : Advanced Simple@L5
Параметр BVOP формата : 1
Параметр QPel формата : Нет
Параметр GMC формата : Без точки перехода
Параметр матрицы формата : Default (MPEG)
Идентификатор кодека : DX50
Идентификатор кодека/Подсказка : DivX 5
Продолжительность : 2 ч. 12 м.
Битрейт : 1277 Кбит/сек
Ширина : 720 пикселей
Высота : 384 пикселя
Соотношение сторон : 1,85:1
Частота кадров : 23,976 кадра/сек
Цветовое пространство : YUV
Субдискретизация насыщенности : 4:2:0
Битовая глубина : 8 бит
Тип развёртки : Прогрессивная
Метод сжатия : С потерями
Бит/(Пиксели*Кадры) : 0.193
Размер потока : 1,18 Гбайт (86%)
Библиотека кодирования : XviD 1.2.1 (UTC 2008-12-04)
Аудио
Идентификатор : 1
Формат : MPEG Audio
Версия формата : Version 1
Профиль формата : Layer 3
Идентификатор кодека : 55
Идентификатор кодека/Подсказка : MP3
Продолжительность : 2 ч. 12 м.
Вид битрейта : Постоянный
Битрейт : 192 Кбит/сек
Каналы : 2 канала
Частота : 48,0 КГц
Метод сжатия : С потерями
Размер потока : 182 Мбайт (13%)
Выравнивание : Соединение по промежуткам
Продолжительность промежутка : 42 мс. (1,00 видеокадр)
Время предзагрузки промежутка : 504 мс.
Библиотека кодирования : LAME3.99r
Настройки программы : -m s -V 4 -q 0 -lowpass 18.6 -b 192
Скриншоты
Скачать

Скачать торрент! Одержимость / In-gan-jung-dok (Тхэ-у Ким / Dae-woo Kim) [2014, Корея Южная, Драма, WEBRip] DVO

Как скачивать? · Что такое торрент? · Рейтинг и ограничения

Сайт не распространяет и не хранит электронные версии произведений, а лишь предоставляет доступ к создаваемому пользователями каталогу ссылок на торрент-файлы, которые содержат только списки хеш-сумм

[Профиль] [ЛС]
Показать сообщения:    
Ответить на тему

Текущее время: Сегодня 20:12

Часовой пояс: GMT + 4



Вы не можете начинать темы
Вы не можете отвечать на сообщения
Вы не можете редактировать свои сообщения
Вы не можете удалять свои сообщения
Вы не можете голосовать в опросах
Вы не можете прикреплять файлы к сообщениям
Вы не можете скачивать файлы