Когда гаснет свет / Te Zhong Jiu Yuan Ying Xiong (Чи-Кин Квок / Chi-kin Kwok) [2014, Гонконг, боевик, драма, HDRip] VO (Вадим Белов)

Ответить на тему
 
Автор Сообщение

user ®

Стаж: 13 лет

Сообщений: 15071

Пост Пост: #1 от 23-Июн-2014 10:55

[Цитировать]

Когда гаснет свет / Te Zhong Jiu Yuan Ying Xiong / As the Light Goes Out
Страна: Гонконг
Жанр: боевик, драма
Год выпуска: 2014
Продолжительность: 01:54:41
Перевод: Одноголосый закадровый Вадим Белов
Cубтитры: нет
Оригинальная аудиодорожка: нет
Режиссер: Чи-Кин Квок / Chi-kin Kwok
В ролях: Николас Тсе, Шон Юе, Саймон Ям, Цзюнь Ху, Бин Бай, Джеки Чан, Кенни Кван, Вэй Кеунг Лау, Лью Кай Чи, Энди Он
Описание: Сегодня рождество. Все жители Гонконга готовятся в этому чудесному празднику. Пожарные прославленного гарнизона также надеялись спокойно провести этот праздничный день, но все усугубилось - поступает очередное сообщение о небольшом пожаре на алкогольном помещении. С одной стороны это не трудная задача, но рядом со складом находится электростанция, при неудачном истечении, весь город может оказаться баз света. Для шефа пожарной группы это ответственный день, так как он скоро выходит на пенсию. Он должен очень ответственно отнестись к новой задаче.
Доп. информация:

Сэмпл: http://multi-up.com/982019
Качество видео: HDRip
Формат видео: AVI
Видео: 720x304 (2.37:1), 24 fps, XviD build 50 ~1311 kbps avg, 0.25 bit/pixel
Аудио: 48 kHz, AC3 Dolby Digital, 3/2 (L,C,R,l,r) + LFE ch, ~384 kbps
MediaInfo
General
Complete name : C:\Kogda.gasnet.svet.2014.HDRip.avi
Format : AVI
Format/Info : Audio Video Interleave
File size : 1.37 GiB
Duration : 1h 54mn
Overall bit rate : 1 705 Kbps
Writing application : VirtualDubMod 1.5.10.2 (build 2540/release)
Writing library : VirtualDubMod build 2540/release
Video
ID : 0
Format : MPEG-4 Visual
Format profile : Advanced Simple@L5
Format settings, BVOP : Yes
Format settings, QPel : No
Format settings, GMC : No warppoints
Format settings, Matrix : Default (MPEG)
Codec ID : XVID
Codec ID/Hint : XviD
Duration : 1h 54mn
Bit rate : 1 312 Kbps
Width : 720 pixels
Height : 304 pixels
Display aspect ratio : 2.35:1
Frame rate : 24.000 fps
Color space : YUV
Chroma subsampling : 4:2:0
Bit depth : 8 bits
Scan type : Progressive
Compression mode : Lossy
Bits/(Pixel*Frame) : 0.250
Stream size : 1.05 GiB (77%)
Writing library : XviD 1.2.1 (UTC 2008-12-04)
Audio
ID : 1
Format : AC-3
Format/Info : Audio Coding 3
Mode extension : CM (complete main)
Format settings, Endianness : Big
Codec ID : 2000
Duration : 1h 54mn
Bit rate mode : Constant
Bit rate : 384 Kbps
Channel count : 6 channels
Channel positions : Front: L C R, Side: L R, LFE
Sampling rate : 48.0 KHz
Bit depth : 16 bits
Compression mode : Lossy
Delay relative to video : 29ms
Stream size : 315 MiB (23%)
Alignment : Split accross interleaves
Interleave, duration : 42 ms (1.00 video frame)
Interleave, preload duration : 500 ms
Скриншот c названием фильма Скриншоты
Скачать

Скачать торрент! Когда гаснет свет / Te Zhong Jiu Yuan Ying Xiong (Чи-Кин Квок / Chi-kin Kwok) [2014, Гонконг, боевик, драма, HDRip] VO (Вадим Белов)

Как скачивать? · Что такое торрент? · Рейтинг и ограничения

Сайт не распространяет и не хранит электронные версии произведений, а лишь предоставляет доступ к создаваемому пользователями каталогу ссылок на торрент-файлы, которые содержат только списки хеш-сумм

[Профиль] [ЛС]
Показать сообщения:    
Ответить на тему

Текущее время: Сегодня 18:09

Часовой пояс: GMT + 4



Вы не можете начинать темы
Вы не можете отвечать на сообщения
Вы не можете редактировать свои сообщения
Вы не можете удалять свои сообщения
Вы не можете голосовать в опросах
Вы не можете прикреплять файлы к сообщениям
Вы не можете скачивать файлы