Воин / Jaka Sembung / The Warrior (Сисворо Гаутама Путра / Sisworo Gautama Putra) [1981, Индонезия, приключения, боевик, DVDRip] VO (iDimo) + Original Eng

Ответить на тему
 
Автор Сообщение

user ®

Стаж: 11 лет

Сообщений: 15151

Пост Пост: #1 от 22-Июн-2014 20:00

[Цитировать]

Воин / Jaka Sembung / The Warrior
Страна: Индонезия
Жанр: приключения, боевик
Год выпуска: 1981
Продолжительность: 01:31:33
Оригинальная аудиодорожка: английский
Перевод: Одноголосый закадровый iDimo
Режиссер: Сисворо Гаутама Путра / Sisworo Gautama Putra
В ролях:
Бэрри Прима
Ева Арназ
В.Д. Мочтар
Дэна Кристина
Дикки Зулкарнэн
Rukman Herman
Дорман Борисман
Х.И.М. Дамсийк
Chaidar Djafar
С. Пария
Описание: Голландские власти репрессируют бедный индонезийский народ, не давай спокойного житья.
Но и у бедняков есть свой лидер, за которым пойдут все без исключения. Его имя — Жака Сембунг.
Он и его последователи дают кровавый отбой колонизаторам во имя свободы и процветания.
Пример видео: http://multi-up.com/981878
Качество видео: DVDRip
Формат видео: AVI
Видео: 1 845 Kbps, 704х304 (2.35:1), 23.976 fps
Аудио: AC-3, 192 Kbps, 2 channels, 48.0 KHz (русский)
Аудио 2: MPEG AudioLayer 3, MP3, 86.9 Kbps, 2 channels, 48.0 KHz (английский)

Скриншоты инфо
General
Complete name : D:\torrent\1 раздачи\Воин\Воин (1981).avi
Format : AVI
Format/Info : Audio Video Interleave
File size : 1.37 GiB
Duration : 1h 31mn
Overall bit rate mode : Variable
Overall bit rate : 2 139 Kbps
Writing application : VirtualDubMod 1.5.4.1 (build 2178/release)
Writing library : VirtualDubMod build 2178/release
Video
ID : 0
Format : MPEG-4 Visual
Format profile : Advanced Simple@L5
Format settings, BVOP : 1
Format settings, QPel : No
Format settings, GMC : No warppoints
Format settings, Matrix : Custom
Codec ID : XVID
Codec ID/Hint : XviD
Duration : 1h 31mn
Bit rate : 1 845 Kbps
Width : 704 pixels
Height : 304 pixels
Display aspect ratio : 2.35:1
Frame rate : 23.976 fps
Color space : YUV
Chroma subsampling : 4:2:0
Bit depth : 8 bits
Scan type : Progressive
Compression mode : Lossy
Bits/(Pixel*Frame) : 0.360
Stream size : 1.18 GiB (86%)
Writing library : XviD 64
General
Complete name : D:\torrent\1 раздачи\Воин\Воин (1981).avi
Format : AVI
Format/Info : Audio Video Interleave
File size : 1.37 GiB
Duration : 1h 31mn
Overall bit rate mode : Variable
Overall bit rate : 2 139 Kbps
Writing application : VirtualDubMod 1.5.4.1 (build 2178/release)
Writing library : VirtualDubMod build 2178/release
Video
ID : 0
Format : MPEG-4 Visual
Format profile : Advanced Simple@L5
Format settings, BVOP : 1
Format settings, QPel : No
Format settings, GMC : No warppoints
Format settings, Matrix : Custom
Codec ID : XVID
Codec ID/Hint : XviD
Duration : 1h 31mn
Bit rate : 1 845 Kbps
Width : 704 pixels
Height : 304 pixels
Display aspect ratio : 2.35:1
Frame rate : 23.976 fps
Color space : YUV
Chroma subsampling : 4:2:0
Bit depth : 8 bits
Scan type : Progressive
Compression mode : Lossy
Bits/(Pixel*Frame) : 0.360
Stream size : 1.18 GiB (86%)
Writing library : XviD 64
Audio #1
ID : 1
Format : AC-3
Format/Info : Audio Coding 3
Mode extension : CM (complete main)
Format settings, Endianness : Big
Codec ID : 2000
Duration : 1h 31mn
Bit rate mode : Constant
Bit rate : 192 Kbps
Channel count : 2 channels
Channel positions : Front: L R
Sampling rate : 48.0 KHz
Bit depth : 16 bits
Compression mode : Lossy
Stream size : 126 MiB (9%)
Alignment : Split accross interleaves
Interleave, duration : 96 ms (2.30 video frames)
Interleave, preload duration : 96 ms
Language : Russian
Audio #2
ID : 2
Format : MPEG Audio
Format version : Version 1
Format profile : Layer 3
Mode : Joint stereo
Mode extension : MS Stereo
Codec ID : 55
Codec ID/Hint : MP3
Duration : 1h 31mn
Bit rate mode : Variable
Bit rate : 86.9 Kbps
Nominal bit rate : 128 Kbps
Channel count : 2 channels
Sampling rate : 48.0 KHz
Compression mode : Lossy
Stream size : 56.9 MiB (4%)
Alignment : Aligned on interleaves
Interleave, duration : 24 ms (0.58 video frame)
Interleave, preload duration : 212 ms
Writing library : LAME3.98r
Encoding settings : -m j -V 4 -q 2 -lowpass 17 --abr 128
Language : English
На трекере есть ещё один фильм с Бэрри Прима
Скачать

Скачать торрент! Воин / Jaka Sembung / The Warrior (Сисворо Гаутама Путра / Sisworo Gautama Putra) [1981, Индонезия, приключения, боевик, DVDRip] VO (iDimo) + Original Eng

Как скачивать? · Что такое торрент? · Рейтинг и ограничения

Сайт не распространяет и не хранит электронные версии произведений, а лишь предоставляет доступ к создаваемому пользователями каталогу ссылок на торрент-файлы, которые содержат только списки хеш-сумм

[Профиль] [ЛС]
Показать сообщения:    
Ответить на тему

Текущее время: Сегодня 20:15

Часовой пояс: GMT + 4



Вы не можете начинать темы
Вы не можете отвечать на сообщения
Вы не можете редактировать свои сообщения
Вы не можете удалять свои сообщения
Вы не можете голосовать в опросах
Вы не можете прикреплять файлы к сообщениям
Вы не можете скачивать файлы