Лан Квай Фонг 3 / Lan Kwai Fong 3 (Уилсон Чин / Wilson Chin) [2014, Гонконг, мелодрама, эротика, HDRip] DVO (GREEN TEA) + Original Chi

Ответить на тему
 
Автор Сообщение

user ®

Стаж: 11 лет

Сообщений: 15151

Пост Пост: #1 от 22-Июн-2014 04:30

[Цитировать]

Лан Квай Фонг 3 / Lan Kwai Fong 3
Страна: Гонконг
Студия: Mei Ah Entertainment
Жанр: мелодрама, эротика
Год выпуска: 2014
Продолжительность: 01:33:36
Перевод: Любительский (двухголосый закадровый) GREEN TEA (Макс Коллапс, Екатерина Юрьева) // Перевод: Мария Беликова
Cубтитры: нет
Оригинальная аудиодорожка: китайский
Режиссер: Уилсон Чин / Wilson Chin
В ролях: Дада Чан, Pak-yu Chan, Эндрю Даш, Джана Хо, Whitney Hui, Селия Квок, Чи-Син Лам, Ava Liu, Кристин ЭнДжи, Гарри Орам
Описание: Люди встречаются, люди влюбляются... женятся. Далеко не у всех отношений хэппи энд в виде Марша Мендельсона. В основе фильма лежат несколько историй: одни живут вместе несколько лет и уже подумывают о свадьбе, а другие только в начале пути и ищут свою вторую половинку. Но всех этих людей связывает одно - любовь к отдыху и развлечениям в ночном клубе. Улица Лан Квай Фонг, дом номер 3 - здесь всё начнётся и посмотрим, чем это закончится... (c) Мария Беликова
II Сэмпл II IMDB II
Релиз группа:
Качество видео: HDRip
Формат видео: AVI
Видео: Xvid 720x304 (2.37:1) 24.0fps Bit rate 1581Kbps b/p 0.301
Аудио 1: AC3 48.0KHz 2ch 192 Kbps rus dvo
Аудио 2: AC3 48.0KHz 6ch 448 Kbps chi
MediaInfo
Общее
Полное имя : E:\torrent\Lan.Kwai.Fong.3.2014.HDRip.avi
Формат : AVI
Формат/Информация : Audio Video Interleave
Размер файла : 1,46 Гбайт
Продолжительность : 1 ч. 33 м.
Общий поток : 2235 Кбит/сек
Программа кодирования : VirtualDubMod 1.5.10.2 (build 2542/release)
Библиотека кодирования : VirtualDubMod build 2542/release
Видео
Идентификатор : 0
Формат : MPEG-4 Visual
Профиль формата : Advanced Simple@L5
Параметр BVOP формата : 2
Параметр QPel формата : Нет
Параметр GMC формата : Без точки перехода
Параметр матрицы формата : Default (H.263)
Идентификатор кодека : XVID
Идентификатор кодека/Подсказка : XviD
Продолжительность : 1 ч. 33 м.
Битрейт : 1581 Кбит/сек
Ширина : 720 пикселей
Высота : 304 пикселя
Соотношение сторон : 2,35:1
Частота кадров : 24,000 кадра/сек
Цветовое пространство : YUV
Субдискретизация насыщенности : 4:2:0
Битовая глубина : 8 бит
Тип развёртки : Прогрессивная
Метод сжатия : С потерями
Бит/(Пиксели*Кадры) : 0.301
Размер потока : 1,03 Гбайт (71%)
Библиотека кодирования : XviD 65
Аудио #1
Идентификатор : 1
Формат : AC-3
Формат/Информация : Audio Coding 3
Расширение режима : CM (complete main)
Параметр Endianness формата : Big
Идентификатор кодека : 2000
Продолжительность : 1 ч. 33 м.
Вид битрейта : Постоянный
Битрейт : 192 Кбит/сек
Каналы : 2 канала
Расположение каналов : Front: L R
Частота : 48,0 КГц
Битовая глубина : 16 бит
Метод сжатия : С потерями
Размер потока : 129 Мбайт (9%)
Выравнивание : Разделение по промежуткам
Продолжительность промежутка : 42 мс. (1,00 видеокадр)
Время предзагрузки промежутка : 500 мс.
Аудио #2
Идентификатор : 2
Формат : AC-3
Формат/Информация : Audio Coding 3
Расширение режима : CM (complete main)
Параметр Endianness формата : Big
Идентификатор кодека : 2000
Продолжительность : 1 ч. 33 м.
Вид битрейта : Постоянный
Битрейт : 448 Кбит/сек
Каналы : 6 каналов
Расположение каналов : Front: L C R, Side: L R, LFE
Частота : 48,0 КГц
Битовая глубина : 16 бит
Метод сжатия : С потерями
Размер потока : 300 Мбайт (20%)
Выравнивание : Разделение по промежуткам
Продолжительность промежутка : 42 мс. (1,00 видеокадр)
Время предзагрузки промежутка : 500 мс.
Скриншот c названием фильма Скриншоты
Скачать

Скачать торрент! Лан Квай Фонг 3 / Lan Kwai Fong 3 (Уилсон Чин / Wilson Chin) [2014, Гонконг, мелодрама, эротика, HDRip] DVO (GREEN TEA) + Original Chi

Как скачивать? · Что такое торрент? · Рейтинг и ограничения

Сайт не распространяет и не хранит электронные версии произведений, а лишь предоставляет доступ к создаваемому пользователями каталогу ссылок на торрент-файлы, которые содержат только списки хеш-сумм

[Профиль] [ЛС]
Показать сообщения:    
Ответить на тему

Текущее время: Сегодня 22:28

Часовой пояс: GMT + 4



Вы не можете начинать темы
Вы не можете отвечать на сообщения
Вы не можете редактировать свои сообщения
Вы не можете удалять свои сообщения
Вы не можете голосовать в опросах
Вы не можете прикреплять файлы к сообщениям
Вы не можете скачивать файлы