Город будущего / Natural City (Мин Бьюн Чун / Min Byung-chun) [2003, Корея Южная, фантастика, боевик, триллер, драма, DVDRip] DVO (Tycoon)

Ответить на тему
 
Автор Сообщение

user ®

Стаж: 11 лет

Сообщений: 15151

Пост Пост: #1 от 17-Июн-2014 19:55

[Цитировать]

Город будущего / Natural City
Страна: Корея Южная
Жанр: фантастика, боевик, триллер, драма
Год выпуска: 2003
Продолжительность: 01:52:49
-
Перевод: Профессиональный (двухголосый закадровый) Tycoon
Cубтитры: нет
-
Режиссер: Мин Бьюн Чун / Min Byung-chun
В ролях: Чи-тэ Ю, Джа-ун Ли, Рин Сео, Доо-хон Джун, Чан Юн
-
Описание: 2080 год. Люди укрываются в городах-государствах, так как в результате масштабных экологических катастроф и бесконечных войн большая часть мира лежит в руинах. Ученым удается клонировать человеческий ДНК и создать роботов с искусственным разумом, предназначенных для удовлетворения самых разных потребностей, даже сексуальных. Но роботы быстро выходят из строя, после чего подлежат уничтожению. Для выявления предназначенных «на слом» создано элитное подразделение спецназа. Любовь офицера этого отряда и робота-танцовщицы, срок жизни которой истек, ставит человечество на грань полной катастрофы…-Фильм в стиле кибер-драма красив во всём. От сцен боёв с ужасающей скоростью и техникой восточных единоборств. До мечтающих и любящих друг друга плывущих сердец. Мечта, мечта жить вечно и быть вместе, видимо именно это и хотелось бы выделить в ленте, не пытаясь её пересказать или указать на еще иные имеющиеся в ленте смысловые закаулочки. Каждый будет трактовать по своему, но любителю фантастики и не чурающемуся любовных линий между полами фильм должен понравиться.
Что касается технической стороны, то следует отметить, что спецэффекты выполнены на «отлично» – это и величественные пейзажи развалин старого города, и угрюмые металлические джунгли города будущего, и прекрасно срежиссированные перестрелки и рукопашные бои, в которых пресловутое «slo-mo» используется к месту и без излишества. Авторы фильма доказывают, что при достаточном финансировании их продукция ничем не уступает голливудским поделкам по уровню технической реализации.
-

-
Сэмпл: http://multi-up.com/980787
-
Качество видео: DVDRip (DVD9/Driverrock)
Формат видео: AVI
Видео: 688x288 (2.39:1), 23.976 fps, XviD build 65 ~1395 kbps avg, 0.29 bit/pixel
Аудио: 48 kHz, AC3 Dolby Digital, 3/2 (L,C,R,l,r) + LFE ch, ~448 kbps
MediaInfo
General
Complete name : C:\Users\ALEX\Downloads\Фильмы\Город будущего.2003.RUS.DVDRip.XviD.AC3.avi
Format : AVI
Format/Info : Audio Video Interleave
File size : 1.46 GiB
Duration : 1h 52mn
Overall bit rate : 1 853 Kbps
Writing application : VirtualDubMod 1.5.10.2 (build 2542/release)
Writing library : VirtualDubMod build 2542/release
Video
ID : 0
Format : MPEG-4 Visual
Format profile : Advanced Simple@L5
Format settings, BVOP : 1
Format settings, QPel : No
Format settings, GMC : No warppoints
Format settings, Matrix : Custom
Codec ID : XVID
Codec ID/Hint : XviD
Duration : 1h 52mn
Bit rate : 1 396 Kbps
Width : 688 pixels
Height : 288 pixels
Display aspect ratio : 2.40:1
Frame rate : 23.976 fps
Color space : YUV
Chroma subsampling : 4:2:0
Bit depth : 8 bits
Scan type : Progressive
Compression mode : Lossy
Bits/(Pixel*Frame) : 0.294
Stream size : 1.10 GiB (75%)
Writing library : XviD 65
Audio
ID : 1
Format : AC-3
Format/Info : Audio Coding 3
Mode extension : CM (complete main)
Format settings, Endianness : Big
Codec ID : 2000
Duration : 1h 52mn
Bit rate mode : Constant
Bit rate : 448 Kbps
Channel(s) : 6 channels
Channel positions : Front: L C R, Side: L R, LFE
Sampling rate : 48.0 KHz
Bit depth : 16 bits
Compression mode : Lossy
Stream size : 362 MiB (24%)
Alignment : Split accross interleaves
Interleave, duration : 42 ms (1.00 video frame)
Interleave, preload duration : 500 ms
Скриншоты
Скачать

Скачать торрент! Город будущего / Natural City (Мин Бьюн Чун / Min Byung-chun) [2003, Корея Южная, фантастика, боевик, триллер, драма, DVDRip] DVO (Tycoon)

Как скачивать? · Что такое торрент? · Рейтинг и ограничения

Сайт не распространяет и не хранит электронные версии произведений, а лишь предоставляет доступ к создаваемому пользователями каталогу ссылок на торрент-файлы, которые содержат только списки хеш-сумм

[Профиль] [ЛС]
Показать сообщения:    
Ответить на тему

Текущее время: Сегодня 02:59

Часовой пояс: GMT + 4



Вы не можете начинать темы
Вы не можете отвечать на сообщения
Вы не можете редактировать свои сообщения
Вы не можете удалять свои сообщения
Вы не можете голосовать в опросах
Вы не можете прикреплять файлы к сообщениям
Вы не можете скачивать файлы