Дурдом / Полный хаос / Total Siyapaa ( Е. Нивас / E. Niwas ) [2014, Индия, Романтическая комедия, DVDRip] MVO (Zee Tv)

Ответить на тему
 
Автор Сообщение

user ®

Стаж: 12 лет

Сообщений: 15092

Пост Пост: #1 от 15-Июн-2014 20:25

[Цитировать]

***Эксклюзивная премьера!***
Дурдом / Полный хаос / Total Siyapaa
Страна: Индия
Жанр: Романтическая комедия
Год выпуска: 2014
Продолжительность: 01:48:05
Перевод: Профессиональный (многоголосый закадровый) Zee Tv
Cубтитры: нет
Режиссер: Е. Нивас / E. Niwas
В ролях: Али Зафар, Ями Гаутам, Киррон Кхер, Анупам Кхер, Сара Кхан, Вишва Бадола, Анудж Пандит, Берри Мартин
Описание: Аман и Аша полюбили друг друга назло обычаям старинным, что, мол, не может индианка влюбиться в парня - пакистанца. Ее родители не в курсе, что иноверцем зять их будет, то есть, не просто мусульманин, а сам он из страны враждебной, с которой издавна воюют индийцы разных поколений.
И вот настал момент счастливый, знакомиться ведут Амана с семьей, как оказалось позже, сюрпризов полной, без обмана. Сначала по лбу апельсином он получил с порога прямо, затем знакомиться с семейкой он стал по очереди... Мама, братишка, дед столетний, сестра, стоп! а где же папа? Он где-то бродит. Ну, да ладно. И без него начнут застолье. Вот только как-то не по плану события стали развиваться. Амана с самого утра стали преследовать несчастья... Полиция, замерзший суп, убийство, так тут еще и мама узнала, наконец, о зяте всю истину из уст дочурки. Что началось тут! Крики, споры. Мать с дочкой ссорятся. Еще бы! Мало того, что мусульманин, так пакистанцем оказался. А что Аман? А он в печали. Точнее, в полном он смятенье. Вы помните, что папы нет здесь? Так не Аман ли тут причастен к внезапному исчезновенью? Все может быть. А быть все может! Не повезло Аману, что же? Теперь уж ничего не сделать. Ну, если только скрестить пальцы на всякий случай, наудачу. Чтобы Аман и Аша, вместе, преодолели все ненастья, что на их голову свалились, грозя разрушить их же счастье. Пока любовь их под угрозой, в квартире бунт не угасает. Семейка та еще, поверьте. Творится там, ну, полный хаос!
Доп. информация:
Сэмпл / Sample
Риппер:randy23
Работа с звуковой дорожкой:василисса
Релиз-группа:
временами идёт лёгкое заикание звука, так вещал канал Zee Tv
Качество видео: DVDRip
Формат видео: AVI
Видео: XviD, 720х304, 23.976 fps, 1478 kbps
Аудио: MP3, 48 kHz , 2.0 (stereo), 192 kbps
MediaInfo
Общее
Полное имя : F:\Movies\BWT\Vremeno\Durdom.2014.DVDRip.XviD.BwTorrents.avi
Формат : AVI
Формат/Информация : Audio Video Interleave
Размер файла : 1,27 Гбайт
Продолжительность : 1 ч. 48 м.
Общий поток : 1680 Кбит/сек
Программа кодирования : VirtualDubMod 1.5.10.2 (build 2542/release)
Библиотека кодирования : VirtualDubMod build 2542/release
Видео
Идентификатор : 0
Формат : MPEG-4 Visual
Профиль формата : Advanced Simple@L5
Параметр BVOP формата : 3
Параметр QPel формата : Нет
Параметр GMC формата : Без точки перехода
Параметр матрицы формата : Default (MPEG)
Идентификатор кодека : XVID
Идентификатор кодека/Подсказка : XviD
Продолжительность : 1 ч. 48 м.
Битрейт : 1479 Кбит/сек
Ширина : 720 пикселей
Высота : 304 пикселя
Соотношение сторон : 2,35:1
Частота кадров : 23,976 кадра/сек
Цветовое пространство : YUV
Субдискретизация насыщенности : 4:2:0
Битовая глубина : 8 бит
Тип развёртки : Прогрессивная
Метод сжатия : С потерями
Бит/(Пиксели*Кадры) : 0.282
Размер потока : 1,12 Гбайт (88%)
Библиотека кодирования : XviD 1.2.1 (UTC 2008-12-04)
Аудио
Идентификатор : 1
Формат : MPEG Audio
Версия формата : Version 1
Профиль формата : Layer 3
Режим : Joint stereo
Расширение режима : MS Stereo
Идентификатор кодека : 55
Идентификатор кодека/Подсказка : MP3
Продолжительность : 1 ч. 48 м.
Вид битрейта : Постоянный
Битрейт : 192 Кбит/сек
Каналы : 2 канала
Частота : 48,0 КГц
Метод сжатия : С потерями
Размер потока : 148 Мбайт (11%)
Выравнивание : Соединение по промежуткам
Продолжительность промежутка : 42 мс. (1,00 видеокадр)
Время предзагрузки промежутка : 504 мс.
Библиотека кодирования : LAME3.99.5
Скриншот c названием фильма Скриншоты
Скачать

Скачать торрент! Дурдом / Полный хаос / Total Siyapaa ( Е. Нивас / E. Niwas ) [2014, Индия, Романтическая комедия, DVDRip] MVO (Zee Tv)

Как скачивать? · Что такое торрент? · Рейтинг и ограничения

Сайт не распространяет и не хранит электронные версии произведений, а лишь предоставляет доступ к создаваемому пользователями каталогу ссылок на торрент-файлы, которые содержат только списки хеш-сумм

[Профиль] [ЛС]
Показать сообщения:    
Ответить на тему

Текущее время: Сегодня 01:40

Часовой пояс: GMT + 4



Вы не можете начинать темы
Вы не можете отвечать на сообщения
Вы не можете редактировать свои сообщения
Вы не можете удалять свои сообщения
Вы не можете голосовать в опросах
Вы не можете прикреплять файлы к сообщениям
Вы не можете скачивать файлы