Слепой детектив / Blind Detective / Man tam (Джонни То / Johnnie To) [2013, Гонконг, Китай, драма, комедия, криминал, HDRip] DVO [GREEN TEA]

Ответить на тему
 
Автор Сообщение

user ®

Стаж: 11 лет

Сообщений: 15151

Пост Пост: #1 от 13-Июн-2014 17:50

[Цитировать]

Слепой детектив / Blind Detective / Man tam- -Страна: Гонконг, Китай
Жанр: драма, комедия, криминал
Год выпуска: 2013
Продолжительность: 02:09:37-Перевод: Любительский (двухголосый закадровый) [GREEN TEA]-Cубтитры: нет
Оригинальная аудиодорожка:нет
Режиссер: Джонни То / Johnnie To
В ролях: Энди Лау, Сэмми Чэн, Гао Юаньюань, Тао Го, Филип Кеунг, Сует Лам, Хой-Панг Ло, Таи-Ло Ма, Ман-Вэй Вонг, Инь-Инь Йиу...
Описание: Он — талантливый детектив, вынужденный уйти в отставку после того, как во время выполнения задания потерял зрение. С тех пор он зарабатывает на жизнь тем, что распутывает дела, с которыми не может справиться полиция. Она — многообещающий полицейский агент, терзаемая чувством вины из-за пропажи подруги детства. Потрясенная тем, с каким блеском он раскрывает дело, она просит его помочь разыскать ее подругу. Он соглашается… по только ему известным причинам.
Релиз от -
Качество видео: HDRip
Формат видео: AVI
Видео: MPEG-4 Visual at 1384 Кбит/сек; 720 x 304 (2.368) at 24.000 fps
Аудио: AC-3 at 224 Кбит/сек; 2 канала, 48,0 КГц
Автор -
MediaInfo
Общее
Полное имя : D:\Фильмы\Азиатские\Слепой детектив\Blind Detective.2013.HDRip.XviD.1400MB. rip by [Assassin's Creed].avi
Формат : AVI
Формат/Информация : Audio Video Interleave
Размер файла : 1,46 Гбайт
Продолжительность : 2 ч. 9 м.
Общий поток : 1617 Кбит/сек
Программа кодирования : VirtualDubMod 1.5.10.2 (build 2540/release)
Библиотека кодирования : VirtualDubMod build 2540/release
Видео
Идентификатор : 0
Формат : MPEG-4 Visual
Профиль формата : Advanced Simple@L5
Параметр BVOP формата : 1
Параметр QPel формата : Нет
Параметр GMC формата : Без точки перехода
Параметр матрицы формата : Default (MPEG)
Идентификатор кодека : XVID
Идентификатор кодека/Подсказка : XviD
Продолжительность : 2 ч. 9 м.
Битрейт : 1384 Кбит/сек
Ширина : 720 пикселей
Высота : 304 пикселя
Соотношение сторон : 2,35:1
Частота кадров : 24,000 кадра/сек
Цветовое пространство : YUV
Субдискретизация насыщенности : 4:2:0
Битовая глубина : 8 бит
Тип развёртки : Прогрессивная
Метод сжатия : С потерями
Бит/(Пиксели*Кадры) : 0.263
Размер потока : 1,25 Гбайт (86%)
Библиотека кодирования : XviD 1.2.1 (UTC 2008-12-04)
Аудио
Идентификатор : 1
Формат : AC-3
Формат/Информация : Audio Coding 3
Расширение режима : CM (complete main)
Параметр Endianness формата : Big
Идентификатор кодека : 2000
Продолжительность : 2 ч. 9 м.
Вид битрейта : Постоянный
Битрейт : 224 Кбит/сек
Каналы : 2 канала
Расположение каналов : Front: L R
Частота : 48,0 КГц
Битовая глубина : 16 бит
Метод сжатия : С потерями
Размер потока : 208 Мбайт (14%)
Выравнивание : Разделение по промежуткам
Продолжительность промежутка : 42 мс. (1,00 видеокадр)
Время предзагрузки промежутка : 500 мс.
Скриншот c названием фильма Скриншоты
Скачать

Скачать торрент! Слепой детектив / Blind Detective / Man tam (Джонни То / Johnnie To) [2013, Гонконг, Китай, драма, комедия, криминал, HDRip] DVO [GREEN TEA]

Как скачивать? · Что такое торрент? · Рейтинг и ограничения

Сайт не распространяет и не хранит электронные версии произведений, а лишь предоставляет доступ к создаваемому пользователями каталогу ссылок на торрент-файлы, которые содержат только списки хеш-сумм

[Профиль] [ЛС]
Показать сообщения:    
Ответить на тему

Текущее время: Сегодня 11:27

Часовой пояс: GMT + 4



Вы не можете начинать темы
Вы не можете отвечать на сообщения
Вы не можете редактировать свои сообщения
Вы не можете удалять свои сообщения
Вы не можете голосовать в опросах
Вы не можете прикреплять файлы к сообщениям
Вы не можете скачивать файлы