Клабуш (Аво Пайстик) [1978, Рисованный мультфильм, DVDRip]

Ответить на тему
 
Автор Сообщение

user ®

Стаж: 7 лет 7 месяцев

Сообщений: 20008

Пост Пост: #1 от 11-Июн-2014 01:10

[Цитировать]

Клабуш
Страна: СССР
Жанр: Рисованный мультфильм
Продолжительность: 00:09:47
Год выпуска: 1978
Перевод: Не требуется
Русские субтитры: нет
Режиссёр: Аво Пайстик
Роли озвучивали: Эстонские артисты
Описание: Студия "Таллинфильм". История чудесных превращений
Качество: DVDRip
Формат: AVI
Видео: 656x480 00:09:47 25fps XviD 2Mbps
Аудио: 48KHz 00:09:47 Stereo 256Kbps
Субтитры: Отсутствуют
Подробные технические данные
ОбщееПолное имя : D:\ИЗБРАННОЕ ВИДЕО\klaabu.aviФормат : AVIФормат/Информация : Audio Video InterleaveРазмер файла : 165 МбайтПродолжительность : 9 м. 47 с.Общий поток : 2355 Кбит/секБиблиотека кодирования : VirtualDub build 32842/release
ВидеоИдентификатор : 0Формат : MPEG-4 VisualПрофиль формата : Advanced Simple@L5Параметр BVOP формата : 1Параметр QPel формата : НетПараметр GMC формата : Без точки переходаПараметр матрицы формата : Default (MPEG)Идентификатор кодека : XVIDИдентификатор кодека/Подсказка : XviDПродолжительность : 9 м. 47 с.Битрейт : 2089 Кбит/секШирина : 656 пикселейВысота : 480 пикселейСоотношение сторон : 4:3Частота кадров : 25,000 кадров/секЦветовое пространство : YUVСубдискретизация насыщенности : 4:2:0Битовая глубина : 8 битТип развёртки : ПрогрессивнаяМетод сжатия : С потерямиБит/(Пиксели*Кадры) : 0.265Размер потока : 146 Мбайт (89%)Библиотека кодирования : XviD 64
АудиоИдентификатор : 1Формат : AC-3Формат/Информация : Audio Coding 3Расширение режима : CM (complete main)Параметр Endianness формата : BigИдентификатор кодека : 2000Продолжительность : 9 м. 47 с.Вид битрейта : ПостоянныйБитрейт : 256 Кбит/секКаналы : 2 каналаРасположение каналов : Front: L RЧастота : 48,0 КГцБитовая глубина : 16 битМетод сжатия : С потерямиРазмер потока : 17,9 Мбайт (11%)Выравнивание : Разделение по промежуткамПродолжительность промежутка : 40 мс. (1,00 видеокадр)Время предзагрузки промежутка : 500 мс.
Скриншоты





Скачать

Скачать торрент!

Как скачивать? · Что такое торрент? · Рейтинг и ограничения

Сайт не распространяет и не хранит электронные версии произведений, а лишь предоставляет доступ к создаваемому пользователями каталогу ссылок на торрент-файлы, которые содержат только списки хеш-сумм

[Профиль] [ЛС]
Показать сообщения:    
Ответить на тему

Текущее время: Сегодня 14:10

Часовой пояс: GMT + 4



Вы не можете начинать темы
Вы не можете отвечать на сообщения
Вы не можете редактировать свои сообщения
Вы не можете удалять свои сообщения
Вы не можете голосовать в опросах
Вы не можете прикреплять файлы к сообщениям
Вы не можете скачивать файлы