Признание убийцы / Confession of Murder (Чжон Бён Гиль / Jeong Byeong Gil) [2012, Южная Корея, боевик, триллер, криминал, HDRip] MVO [ STEPonee] + original Kor Sub Rus

Ответить на тему
 
Автор Сообщение

user ®

Стаж: 11 лет

Сообщений: 15151

Пост Пост: #1 от 11-Июн-2014 01:10

[Цитировать]

Признание убийцы / Confession of Murder- -Страна: Южная Корея
Жанр: боевик, триллер, криминал
Год выпуска: 2012
Продолжительность: 01:59:48-Перевод: Любительский (многоголосый закадровый) студия [STEPonee]-Cубтитры: русские [отдельно]
Оригинальная аудиодорожка: кореский
Режиссер: Чжон Бён Гиль / Jeong Byeong Gil
В ролях: Чон Чжэ Ён, Пак Си Ху, Ким Ён Э, Чои Вон Ён, Чо Ын Джи, Чо Даль Хван, Ким Чон Гу, Пэ Сон У, Мин Джи А
Описание: После того как истекает срок исковой давности за убийства, которые он совершал, Ли Ду-Сок издает автобиографию с описанием всех его убийств в мельчайших подробностях. Детектив Чой, который расследовал убийства Ли 15 лет назад, снова начинает преследовать его, и Хан Чжи-Су, потерявшая свою дочь по вине Ли, жаждет мести. А в это время появляется другой убийца, ставя под сомнение то, действительно ли Ли Ду-Сок является серийным убийцей.
Релиз от -
Сэмпл: http://multi-up.com/979520
Качество видео: HDRip
Формат видео: AVI
Видео: MPEG-4 Visual at 1704 Кбит/сек; 704 x 304 (2.316) at 23.976 fps
Аудио: AC-3 at 448 Кбит/сек; 6 каналов, 48,0 КГц [MVO]
Аудио: AC-3 at 448 Кбит/сек; 6 каналов, 48,0 КГц [Kor]
Автор -
MediaInfo
Общее
Полное имя : D:\Фильмы\Азиатские\Признание убийцы\Confession of Murder.2012.HDRip.XviD.2200MB. rip by [Assassin's Creed]\Confession of Murder.2012.HDRip.XviD.2200MB. rip by [Assassin's Creed].avi
Формат : AVI
Формат/Информация : Audio Video Interleave
Профиль формата : OpenDML
Размер файла : 2,19 Гбайт
Продолжительность : 1 ч. 59 м.
Общий поток : 2617 Кбит/сек
Программа кодирования : VirtualDubMod 1.5.10.2 (build 2540/release)
Библиотека кодирования : VirtualDubMod build 2540/release
Видео
Идентификатор : 0
Формат : MPEG-4 Visual
Профиль формата : Advanced Simple@L5
Параметр BVOP формата : 1
Параметр QPel формата : Нет
Параметр GMC формата : Без точки перехода
Параметр матрицы формата : Default (MPEG)
Идентификатор кодека : XVID
Идентификатор кодека/Подсказка : XviD
Продолжительность : 1 ч. 59 м.
Битрейт : 1704 Кбит/сек
Ширина : 704 пикселя
Высота : 304 пикселя
Соотношение сторон : 2,35:1
Частота кадров : 23,976 кадра/сек
Цветовое пространство : YUV
Субдискретизация насыщенности : 4:2:0
Битовая глубина : 8 бит
Тип развёртки : Прогрессивная
Метод сжатия : С потерями
Бит/(Пиксели*Кадры) : 0.332
Размер потока : 1,43 Гбайт (65%)
Библиотека кодирования : XviD 1.2.1 (UTC 2008-12-04)
Аудио #1
Идентификатор : 1
Формат : AC-3
Формат/Информация : Audio Coding 3
Расширение режима : CM (complete main)
Параметр Endianness формата : Big
Идентификатор кодека : 2000
Продолжительность : 1 ч. 59 м.
Вид битрейта : Постоянный
Битрейт : 448 Кбит/сек
Каналы : 6 каналов
Расположение каналов : Front: L C R, Side: L R, LFE
Частота : 48,0 КГц
Битовая глубина : 16 бит
Метод сжатия : С потерями
Размер потока : 384 Мбайт (17%)
Выравнивание : Разделение по промежуткам
Продолжительность промежутка : 42 мс. (1,00 видеокадр)
Время предзагрузки промежутка : 500 мс.
Аудио #2
Идентификатор : 2
Формат : AC-3
Формат/Информация : Audio Coding 3
Расширение режима : CM (complete main)
Параметр Endianness формата : Big
Идентификатор кодека : 2000
Продолжительность : 1 ч. 59 м.
Вид битрейта : Постоянный
Битрейт : 448 Кбит/сек
Каналы : 6 каналов
Расположение каналов : Front: L C R, Side: L R, LFE
Частота : 48,0 КГц
Битовая глубина : 16 бит
Метод сжатия : С потерями
Размер потока : 384 Мбайт (17%)
Выравнивание : Разделение по промежуткам
Продолжительность промежутка : 42 мс. (1,00 видеокадр)
Время предзагрузки промежутка : 500 мс.
Общее
Полное имя : D:\Фильмы\Азиатские\Признание убийцы\Confession of Murder.2012.HDRip.XviD.2200MB. rip by [Assassin's Creed]\Confession of Murder.2012.HDRip.XviD.2200MB. rip by [Assassin's Creed].rus..srt
Формат : SubRip
Размер файла : 116 Кбайт
Текст
Формат : SubRip
Метод сжатия : Без потерь
Скриншот c названием фильма Скриншоты
Скачать

Скачать торрент! Признание убийцы / Confession of Murder (Чжон Бён Гиль / Jeong Byeong Gil) [2012, Южная Корея, боевик, триллер, криминал, HDRip] MVO [ STEPonee] + original Kor Sub Rus

Как скачивать? · Что такое торрент? · Рейтинг и ограничения

Сайт не распространяет и не хранит электронные версии произведений, а лишь предоставляет доступ к создаваемому пользователями каталогу ссылок на торрент-файлы, которые содержат только списки хеш-сумм

[Профиль] [ЛС]
Показать сообщения:    
Ответить на тему

Текущее время: Сегодня 15:23

Часовой пояс: GMT + 4



Вы не можете начинать темы
Вы не можете отвечать на сообщения
Вы не можете редактировать свои сообщения
Вы не можете удалять свои сообщения
Вы не можете голосовать в опросах
Вы не можете прикреплять файлы к сообщениям
Вы не можете скачивать файлы