Путь домой / Way Back Home (Бан Ын Чжин / Bang Eun Jin) [2013, Южная Корея, Драма, DVDRip] VO D.I.M.

Ответить на тему
 
Автор Сообщение

user ®

Стаж: 11 лет

Сообщений: 15151

Пост Пост: #1 от 06-Июн-2014 15:50

[Цитировать]

Путь домой / Way Back Home
Страна: Южная Корея
Жанр: Драма
Год выпуска: 2013
Продолжительность: 2:09:30
Перевод: Одноголосый закадровый D.I.M.
Cубтитры: русские вшитые (только на песни)
Режиссер: Бан Ын Чжин / Bang Eun Jin
В ролях: Чжон До Ён / Jeon Do-yeon
Ко Су / Кo Soo
Клодет Лали / Claudette Lali
Описание: Жила-была семья и всё вроде бы у неё шло хорошо.
Подрастала дочка, родители открыли свою автомастерскую.
Но пришлось отдавать долг банку, потому что глава семейства
был поручителем своего друга, а тот покончил с собой,
не расплатившись с банком.
И семья оказалась втянута в аферу с наркотиками...
Это девяносто пятый фильм с моим переводом и озвучкой,
выложенный здесь.
Сэмпл: http://multi-up.com/978630
Качество видео: DVDRip
Формат видео: AVI
Видео: 720*304 (2,35:1), 23,976 fps, MPEG-4 Visual (XviD) ~ 1382 kbps avg, 0.263 bit/pixel
Аудио: MPEG Audio Layer 3, 48000Hz, stereo, 128kbps
MediaInfo
Общее
Полное имя : E:\TORENT\РАЗДАЧИ (РИПЫ)\Way Back Home (2013).avi
Формат : AVI
Формат/Информация : Audio Video Interleave
Размер файла : 1,37 Гбайт
Продолжительность : 2 ч. 9 м.
Общий поток : 1513 Кбит/сек
Программа кодирования : VirtualDubModRus 1.5.10.2 (build 2542/release)
Библиотека кодирования : VirtualDubMod build 2542/release
Видео
Идентификатор : 0
Формат : MPEG-4 Visual
Профиль формата : Advanced Simple@L5
Параметр BVOP формата : Нет
Параметр QPel формата : Нет
Параметр GMC формата : Без точки перехода
Параметр матрицы формата : Выборочная
Идентификатор кодека : XVID
Идентификатор кодека/Подсказка : XviD
Продолжительность : 2 ч. 9 м.
Битрейт : 1382 Кбит/сек
Ширина : 720 пикс.
Высота : 304 пикс.
Соотношение сторон : 2,35:1
Частота кадров : 23,976 кадр/сек
Цветовое пространство : YUV
Подвыборка цветности : 4:2:0
Битовая глубина : 8 бит
Тип развёртки : Прогрессивная
Метод сжатия : С потерями
Бит/(Пиксели*Кадры) : 0.263
Размер потока : 1,25 Гбайт (91%)
Библиотека кодирования : XviD 63
Аудио
Идентификатор : 1
Формат : MPEG Audio
Версия формата : Version 1
Профиль формата : Layer 3
Режим : Joint stereo
Идентификатор кодека : 55
Идентификатор кодека/Подсказка : MP3
Продолжительность : 2 ч. 4 м.
Вид битрейта : Постоянный
Битрейт : 128 Кбит/сек
Канал(ы) : 2 канала(ов)
Частота : 48,0 КГц
Метод сжатия : С потерями
Размер потока : 114 Мбайт (8%)
Выравнивание : Соединение по промежуткам
Продолжительность промежутка : 43 мс. (1,04 видеокадр)
Время предзагрузки промежутка : 504 ms
Библиотека кодирования : LAME3.98.2
Язык : Russian
Скриншот c названием фильма Скриншоты
Скачать

Скачать торрент! Путь домой / Way Back Home (Бан Ын Чжин / Bang Eun Jin) [2013, Южная Корея, Драма, DVDRip] VO D.I.M.

Как скачивать? · Что такое торрент? · Рейтинг и ограничения

Сайт не распространяет и не хранит электронные версии произведений, а лишь предоставляет доступ к создаваемому пользователями каталогу ссылок на торрент-файлы, которые содержат только списки хеш-сумм

[Профиль] [ЛС]
Показать сообщения:    
Ответить на тему

Текущее время: Сегодня 20:12

Часовой пояс: GMT + 4



Вы не можете начинать темы
Вы не можете отвечать на сообщения
Вы не можете редактировать свои сообщения
Вы не можете удалять свои сообщения
Вы не можете голосовать в опросах
Вы не можете прикреплять файлы к сообщениям
Вы не можете скачивать файлы