Караульный пост 506 / Сторожевой пост / The Guard Post: GP506 / G.P. 506 (Су-Чанг Куенг / Su-Chang Kong) [2008, Южная Корея, ужасы, триллер, HDRip] AVO (Сербин)

Ответить на тему
 
Автор Сообщение

user ®

Стаж: 11 лет

Сообщений: 15151

Пост Пост: #1 от 06-Июн-2014 01:15

[Цитировать]

Караульный пост 506 / Сторожевой пост / The Guard Post: GP506 / G.P. 506
Страна: Южная Корея
Жанр: ужасы, триллер
Год выпуска: 2008
Продолжительность: 01:51:11
Перевод: Авторский (одноголосый закадровый) Сербин
Cубтитры: нет
Режиссер: Су-Чанг Куенг / Su-Chang Kong
В ролях: Чхон Хо Чжин, Чо Хуюн-джэй, Гю-Хван Чхве, Бён-Чхоль До, Чо Чжин Ун, Пён-чхоль Ким, Сон-пом Ким, Ку Сон-хван, Чхоль-хи Ли, Ли Чжон Хон.
Описание: Когда отряд Караульного поста 506 не вышел на связь раз в полчаса, как обычно, власти заволновались… На этот пост прибывает разведывательный отряд, чтобы разобраться, что там случилось…
Сэмпл: http://multi-up.com/978205
Качество видео: HDRip (720р)
Формат видео: AVI
Видео: XviD, 726 kbps, 656 х 352 pixels, 24 fps
Аудио: MP3, 128 Kbps, 2 channels, 48.0 KHz

MediaInfo
General
Complete name : D:\GP506.HDRip.745mb.avi
Format : AVI
Format/Info : Audio Video Interleave
File size : 748 MiB
Duration : 2h 1mn
Overall bit rate : 864 Kbps
Writing application : VirtualDubMod 1.5.10.3 | www.virtualdub-fr.org || (build 2550/release)
Writing library : VirtualDubMod build 2550/release
Video
ID : 0
Format : MPEG-4 Visual
Format profile : Advanced Simple@L5
Format settings, BVOP : Yes
Format settings, QPel : No
Format settings, GMC : No warppoints
Format settings, Matrix : Custom
Codec ID : XVID
Codec ID/Hint : XviD
Duration : 2h 1mn
Bit rate : 726 Kbps
Width : 656 pixels
Height : 352 pixels
Display aspect ratio : 1.85:1
Frame rate : 24.000 fps
Color space : YUV
Chroma subsampling : 4:2:0
Bit depth : 8 bits
Scan type : Progressive
Compression mode : Lossy
Bits/(Pixel*Frame) : 0.131
Stream size : 629 MiB (84%)
Writing library : XviD 73
Audio
ID : 1
Format : MPEG Audio
Format version : Version 1
Format profile : Layer 3
Codec ID : 55
Codec ID/Hint : MP3
Duration : 2h 1mn
Bit rate mode : Constant
Bit rate : 128 Kbps
Channel(s) : 2 channels
Sampling rate : 48.0 KHz
Compression mode : Lossy
Stream size : 111 MiB (15%)
Alignment : Aligned on interleaves
Interleave, duration : 42 ms (1.00 video frame)
Interleave, preload duration : 504 ms
Writing library : LAME3.99r
Encoding settings : -m s -V 4 -q 2 -lowpass 17 -b 128
Скриншот c названием фильма Скриншоты
Скачать

Скачать торрент! Караульный пост 506 / Сторожевой пост / The Guard Post: GP506 / G.P. 506 (Су-Чанг Куенг / Su-Chang Kong) [2008, Южная Корея, ужасы, триллер, HDRip] AVO (Сербин)

Как скачивать? · Что такое торрент? · Рейтинг и ограничения

Сайт не распространяет и не хранит электронные версии произведений, а лишь предоставляет доступ к создаваемому пользователями каталогу ссылок на торрент-файлы, которые содержат только списки хеш-сумм

[Профиль] [ЛС]
Показать сообщения:    
Ответить на тему

Текущее время: Сегодня 14:09

Часовой пояс: GMT + 4



Вы не можете начинать темы
Вы не можете отвечать на сообщения
Вы не можете редактировать свои сообщения
Вы не можете удалять свои сообщения
Вы не можете голосовать в опросах
Вы не можете прикреплять файлы к сообщениям
Вы не можете скачивать файлы