Тайна волшебной Тыквы / The Secret of the Magic Gourd / Bao hu lu de mi mi (Джон Чу, Фрэнки Чунг / John Chu, Frankie Chung) [2007, США, Гонконг, Китай, Приключения, детский, фэнтази, DVDRip] Dub (Disney) + Chi

Ответить на тему
 
Автор Сообщение

user ®

Стаж: 11 лет

Сообщений: 15151

Пост Пост: #1 от 24-Май-2014 02:45

[Цитировать]

Тайна волшебной Тыквы / The Secret of the Magic Gourd / Bao hu lu de mi mi
Страна: США, Гонконг, Китай
Жанр: Приключения, детский, фэнтази
Год выпуска: 2007
Продолжительность: 01:24:59
Перевод: Профессиональный (дублированный) Disney
Cубтитры: нет
Оригинальная аудиодорожка: китайский
Режиссер: Джон Чу, Фрэнки Чунг / John Chu, Frankie Chung
В ролях: Жу Кьилонг, Пейсы Чен, Чинг Ван Лау, Гиги Люн, Чи Йинг Чан
Описание: Ван Бао, великий фантазёр и неуч, однажды получает возможность облегчить свою участь незадачливого ученика с помощью магического существа, о котором он слышал только из бабушкиных сказок. Бао Ху Ло, Волшебная Тыква, это совершенное создание, исполняющее все ваши желания, если вам посчастливилось стать его Хозяином. Но одно дело слушать как всё просто в сказках, и совсем другое загадывать желания самому. Оказывается, недостаточно знать, чего ты хочешь, нужно ещё и суметь правильно пожелать, в противном случае, ваши желания могут обратиться против вас…
Сэмпл: http://multi-up.com/975650
Качество видео:DVDRip
Формат видео: AVI
Видео: MPEG4, XviD, 704x304 (2.35), 23.976 fps, 1 859 Kbps (0.362 bit/pixel)
Аудио: AC-3, 48.0 KHz, 2 ch, 192 Kbps, CBR - русский
Аудио 2: AC-3, 48.0 KHz, 6 ch, 384 Kbps, CBR - китайский
MediaInfo
Общее
Полное имя : K:\Тайна волшебной Тыквы.avi
Формат : AVI
Формат/Информация : Audio Video Interleave
Размер файла : 1,46 Гбайт
Продолжительность : 1 ч. 25 м.
Общий поток : 2449 Кбит/сек
Название фильма : Тайна волшебной Тыквы / The Secret of the Magic Gourd / Bao hu lu de mi mi (2007)
Программа кодирования : VirtualDubMod 1.5.10.2 (build 2540/release)
Библиотека кодирования : VirtualDubMod build 2540/release
Правообладатель : miha2154
Видео
Идентификатор : 0
Формат : MPEG-4 Visual
Профиль формата : Advanced Simple@L5
Параметр BVOP формата : 2
Параметр QPel формата : Нет
Параметр GMC формата : Без точки перехода
Параметр матрицы формата : Default (MPEG)
Идентификатор кодека : XVID
Идентификатор кодека/Подсказка : XviD
Продолжительность : 1 ч. 25 м.
Битрейт : 1859 Кбит/сек
Ширина : 704 пикселя
Высота : 304 пикселя
Соотношение сторон : 2,35:1
Частота кадров : 23,976 кадра/сек
Цветовое пространство : YUV
Субдискретизация насыщенности : 4:2:0
Битовая глубина : 8 бит
Тип развёртки : Прогрессивная
Метод сжатия : С потерями
Бит/(Пиксели*Кадры) : 0.362
Размер потока : 1,10 Гбайт (76%)
Библиотека кодирования : XviD 1.1.0 (UTC 2005-11-22)
Аудио #1
Идентификатор : 1
Формат : AC-3
Формат/Информация : Audio Coding 3
Расширение режима : CM (complete main)
Параметр Endianness формата : Big
Идентификатор кодека : 2000
Продолжительность : 1 ч. 25 м.
Вид битрейта : Постоянный
Битрейт : 192 Кбит/сек
Каналы : 2 канала
Расположение каналов : Front: L R
Частота : 48,0 КГц
Битовая глубина : 16 бит
Метод сжатия : С потерями
Размер потока : 117 Мбайт (8%)
Выравнивание : Разделение по промежуткам
Продолжительность промежутка : 42 мс. (1,00 видеокадр)
Время предзагрузки промежутка : 500 мс.
Заголовок : Профессиональный (полное дублирование) Disney
Аудио #2
Идентификатор : 2
Формат : AC-3
Формат/Информация : Audio Coding 3
Расширение режима : CM (complete main)
Параметр Endianness формата : Big
Идентификатор кодека : 2000
Продолжительность : 1 ч. 25 м.
Вид битрейта : Постоянный
Битрейт : 384 Кбит/сек
Каналы : 6 каналов
Расположение каналов : Front: L C R, Side: L R, LFE
Частота : 48,0 КГц
Битовая глубина : 16 бит
Метод сжатия : С потерями
Размер потока : 234 Мбайт (16%)
Выравнивание : Разделение по промежуткам
Продолжительность промежутка : 42 мс. (1,00 видеокадр)
Время предзагрузки промежутка : 500 мс.
Заголовок : Китайский
Скриншоты
Скачать

Скачать торрент! Тайна волшебной Тыквы / The Secret of the Magic Gourd / Bao hu lu de mi mi (Джон Чу, Фрэнки Чунг / John Chu, Frankie Chung) [2007, США, Гонконг, Китай, Приключения, детский, фэнтази, DVDRip] Dub (Disney) + Chi

Как скачивать? · Что такое торрент? · Рейтинг и ограничения

Сайт не распространяет и не хранит электронные версии произведений, а лишь предоставляет доступ к создаваемому пользователями каталогу ссылок на торрент-файлы, которые содержат только списки хеш-сумм

[Профиль] [ЛС]
Показать сообщения:    
Ответить на тему

Текущее время: Сегодня 11:00

Часовой пояс: GMT + 4



Вы не можете начинать темы
Вы не можете отвечать на сообщения
Вы не можете редактировать свои сообщения
Вы не можете удалять свои сообщения
Вы не можете голосовать в опросах
Вы не можете прикреплять файлы к сообщениям
Вы не можете скачивать файлы