Смертельная сеть / Сайт "Deathnet.com" / Deathnet.com (Энди Нг / Andy Ng) [2000, Гонконг, боевик, триллер, DVDRip] VO (Виктор Береговых)

Ответить на тему
 
Автор Сообщение

user ®

Стаж: 11 лет

Сообщений: 15151

Пост Пост: #1 от 23-Май-2014 23:35

[Цитировать]

Смертельная сеть / Сайт "Deathnet.com" / Deathnet.com
Страна: Гонконг
Жанр: боевик, триллер
Год выпуска: 2000
Продолжительность: 01:28:35
Перевод: Одноголосый закадровый (Виктор Береговых)
Cубтитры: нет
Режиссер: Энди Нг / Andy Ng
В ролях: Лён Ка Ян, Саймон Ям, Гордон Лам, Хелена Лау, Лилиан Чан, Эрик Суэн, Анджела Тон, Гэбриел Харрисон
Описание: Полицейский инспектор Тед (Саймон Ям), отделившись от своих во время операции, становится свидетелем самоубийства молодой девушки (Анджела Тон). Не придав этому значения, уже вскоре он вспоминает об этом деле, когда на его территории случается еще несколько самоубийств. Как вскоре выясняется, все погибшие посещали один и тот же сайт, вебмастер которого откровенно уговаривал их покончить с собой.(Акира)
Сэмпл: http://www.sendspace.com/file/whe01z
Качество видео: DVDRip
Формат видео: AVI
Видео: XviD, 720x416 (16:9), 23.976 fps, 2157 kbps avg, 0.300 bit/pixel
Аудио: AC3, 48.0 KHz, 192 Kbps, 2 channels
Релиз форума Tavernaclub
MediaInfo
General
Complete name : C:\Смертельная сеть\Смертельная сеть.avi
Format : AVI
Format/Info : Audio Video Interleave
File size : 1.46 GiB
Duration : 1h 28mn
Overall bit rate : 2 356 Kbps
Writing application : VirtualDubMod 1.5.4.1 (build 2178/release)
Writing library : VirtualDubMod build 2178/release
Video
ID : 0
Format : MPEG-4 Visual
Format profile : AdvancedSimple@L5
Format settings, BVOP : Yes
Format settings, QPel : No
Format settings, GMC : No warppoints
Format settings, Matrix : Custom
Codec ID : XVID
Codec ID/Hint : XviD
Duration : 1h 28mn
Bit rate : 2 157 Kbps
Width : 720 pixels
Height : 416 pixels
Display aspect ratio : 16:9
Frame rate : 23.976 fps
Resolution : 24 bits
Colorimetry : 4:2:0
Scan type : Progressive
Bits/(Pixel*Frame) : 0.300
Stream size : 1.33 GiB (92%)
Writing library : XviD 1.2.0.dev47 (UTC 2006-11-01)
Audio
ID : 1
Format : AC-3
Format/Info : Audio Coding 3
Codec ID : 2000
Duration : 1h 28mn
Bit rate mode : Constant
Bit rate : 192 Kbps
Channel(s) : 2 channels
Channel positions : L R
Sampling rate : 48.0 KHz
Stream size : 122 MiB (8%)
Alignment : Split accross interleaves
Interleave, duration : 96 ms (2.30 video frames)
Interleave, preload duration : 96 ms
Language : Russian
Скриншот c названием фильма Скриншоты
Скачать

Скачать торрент! Смертельная сеть / Сайт "Deathnet.com" / Deathnet.com (Энди Нг / Andy Ng) [2000, Гонконг, боевик, триллер, DVDRip] VO (Виктор Береговых)

Как скачивать? · Что такое торрент? · Рейтинг и ограничения

Сайт не распространяет и не хранит электронные версии произведений, а лишь предоставляет доступ к создаваемому пользователями каталогу ссылок на торрент-файлы, которые содержат только списки хеш-сумм

[Профиль] [ЛС]
Показать сообщения:    
Ответить на тему

Текущее время: Сегодня 00:42

Часовой пояс: GMT + 4



Вы не можете начинать темы
Вы не можете отвечать на сообщения
Вы не можете редактировать свои сообщения
Вы не можете удалять свои сообщения
Вы не можете голосовать в опросах
Вы не можете прикреплять файлы к сообщениям
Вы не можете скачивать файлы