Метеор-убийца / Убийца-метеор / The Killer Meteors / Feng yu shuang liu xing (Ло Вэй / Lo Wei) [1976, Гонконг, Боевые искусства, детектив, HDTVRip] MVO (СТС)

Ответить на тему
 
Автор Сообщение

user ®

Стаж: 11 лет

Сообщений: 15151

Пост Пост: #1 от 23-Май-2014 01:05

[Цитировать]

Метеор-убийца / Убийца-метеор / The Killer Meteors / Feng yu shuang liu xing
Страна: Гонконг
Жанр: Боевые искусства, детектив
Год выпуска: 1976
Продолжительность: 01:24:55
Перевод: Профессиональный (многоголосый закадровый) СТС
Cубтитры: нет
Режиссер: Ло Вэй / Lo Wei
В ролях: Джимми Ванг Ю, Джеки Чан, Ли Ман-Тай, Ма Чеунг, Май Кей, Филлип Ко, Вонг Юк-Пинг, Ву Вэй, Лан Ю-Ли, Ли Кеунг, Люк Ят-Лунг, Ман Ман, Сит Хон, Тунг Лам, Чан Вэй-Лау, Чинг Куо-Чунг, Ши Тинг-Кен, Ю Линг-Лунг.
Описание: Странствующий воин по имени Метеор (Джимми Ванг Ю) оказывается втянутым в темную историю с супружеской неверностью, ограблением, убийством и отравлениями. Таинственный богач Ва (Джеки Чан) нанимает Метеора, чтобы убить собственную жену - по словам Ва, та заводит романы направо и налево и даже пыталась отравить своего мужа, чтобы заграбастать себе все его состояние. Метеор не особенно верит в слова заказчика и вообще не хочет влезать в чужие семейные дрязги, но ему просто не оставляют выбора...
Сэмпл: http://multi-up.com/975439
Качество: HDTVRip
Формат: AVI
Видео кодек: XviD
Аудио кодек: MP3
Видео: 688x288 (2.39:1), 25 fps, XviD build 73 ~1084 kbps avg, 0.22 bit/pixel
Аудио: 48 kHz, MPEG Layer 3, 2 ch, ~128.00 kbps avg |Многоголосый закадровый, CTC|

MI
Формат : AVI
Формат/Информация : Audio Video Interleave
Размер файла : 743 Мбайт
Продолжительность : 1 ч. 24 м.
Общий поток : 1223 Кбит/сек
Программа кодирования : VirtualDubMod 1.5.10.3 | www.virtualdub-fr.org || (build 2550/release)
Библиотека кодирования : VirtualDubMod build 2550/release
Видео
Идентификатор : 0
Формат : MPEG-4 Visual
Профиль формата : Advanced Simple@L5
Параметр BVOP формата : 2
Параметр QPel формата : Нет
Параметр GMC формата : Без точки перехода
Параметр матрицы формата : Default (MPEG)
Идентификатор кодека : XVID
Идентификатор кодека/Подсказка : XviD
Продолжительность : 1 ч. 24 м.
Битрейт : 1085 Кбит/сек
Ширина : 688 пикселей
Высота : 288 пикселей
Соотношение сторон : 2,40:1
Частота кадров : 25,000 кадров/сек
Цветовое пространство : YUV
Субдискретизация насыщенности : 4:2:0
Битовая глубина : 8 бит
Тип развёртки : Прогрессивная
Метод сжатия : С потерями
Бит/(Пиксели*Кадры) : 0.219
Размер потока : 659 Мбайт (89%)
Библиотека кодирования : XviD 73
Аудио
Идентификатор : 1
Формат : MPEG Audio
Версия формата : Version 1
Профиль формата : Layer 3
Идентификатор кодека : 55
Идентификатор кодека/Подсказка : MP3
Продолжительность : 1 ч. 24 м.
Вид битрейта : Постоянный
Битрейт : 128 Кбит/сек
Каналы : 2 канала
Частота : 48,0 КГц
Метод сжатия : С потерями
Размер потока : 77,8 Мбайт (10%)
Выравнивание : Соединение по промежуткам
Продолжительность промежутка : 40 мс. (1,00 видеокадр)
Время предзагрузки промежутка : 504 мс.
Библиотека кодирования : LAME3.99r
Настройки программы : -m s -V 4 -q 2 -lowpass 17 -b 128
Скрины
Скачать

Скачать торрент! Метеор-убийца / Убийца-метеор / The Killer Meteors / Feng yu shuang liu xing (Ло Вэй / Lo Wei) [1976, Гонконг, Боевые искусства, детектив, HDTVRip] MVO (СТС)

Как скачивать? · Что такое торрент? · Рейтинг и ограничения

Сайт не распространяет и не хранит электронные версии произведений, а лишь предоставляет доступ к создаваемому пользователями каталогу ссылок на торрент-файлы, которые содержат только списки хеш-сумм

[Профиль] [ЛС]
Показать сообщения:    
Ответить на тему

Текущее время: Сегодня 11:31

Часовой пояс: GMT + 4



Вы не можете начинать темы
Вы не можете отвечать на сообщения
Вы не можете редактировать свои сообщения
Вы не можете удалять свои сообщения
Вы не можете голосовать в опросах
Вы не можете прикреплять файлы к сообщениям
Вы не можете скачивать файлы