Кэйскэ Киносьта: В начале пути / Dawn of a Filmmaker The Keisuke Kinoshita Story / Hajimari no michi (Кэйити Хара / Keiichi Hara) [2013, Япония, биография, драма, DVDRip] Sub

Ответить на тему
 
Автор Сообщение

user ®

Стаж: 13 лет

Сообщений: 15071

Пост Пост: #1 от 21-Май-2014 02:40

[Цитировать]

Кэйскэ Киносьта: В начале пути / Dawn of a Filmmaker The Keisuke Kinoshita Story / Hajimari no michi / はじまりのみち
Страна: Япония
Жанр: биография, драма
Год выпуска: 2013
Продолжительность: 01:36:34
Перевод: Субтитры русские - перевод с японского дед_сто_лет©
Cубтитры: русские
Оригинальная аудиодорожка: японский
Режиссер: Кэйити Хара / Keiichi Hara
В ролях: Рё КАСЭ, Юсукэ САНТАМАРИА, Гаку ХАМАДА, Сигэру САЙКИ, Кэн МИЦУИСИ, Мари ХАМАДА, Рио ЯМАСЬТА, Сёко ФУДЗИМУРА, Маю МАЦУОКА, Ицуки САГАРА, Рэн ОСУГИ, Аои МИЯДЗАКИ, Юко ТАНАКА
Описание: Несколько решающих дней из жизни классика японского кино Кэйскэ Киносьта (1912 - 1998). В конце войны он разочаровывается в кино и возвращается в родной дом в Хамамацу. Последующие события укрепляют его веру и помогают вернуться к любимому делу. Фильм посвящен 100-летию со дня рождения режиссера.
> > > > > > > > > > > > > > > > > > Статья о Кэйскэ Киносьта
Качество видео: DVDRip
Формат видео: AVI
Видео: 688x368 (1.87:1), 23.976 fps, XviD build 64 ~1491 kbps avg, 0.25 bit/pixel
Аудио: 48 kHz, MPEG Layer 3, 2 ch, ~128.00 kbps avg
Формат субтитров: softsub (SRT)
Доп. информация о субтитрах: дед_сто_лет
Пример субтитров
216
00:20:26,892 --> 00:20:29,394
Но ещё больше люблю поесть.
217
00:20:30,980 --> 00:20:33,106
Это верно.
218
00:20:35,109 --> 00:20:36,151
А что ты любишь больше всего?
219
00:20:37,236 --> 00:20:40,405
Да всё равно.
Рис с карри подойдет.
220
00:20:41,866 --> 00:20:44,284
Как есть хочется...
221
00:20:48,205 --> 00:20:50,290
Вот тарелка с горячим рисом.
222
00:20:51,167 --> 00:20:54,544
Поливаю её карри.
223
00:20:58,716 --> 00:21:01,050
Такой вкусный запах.
224
00:21:02,511 --> 00:21:05,805
Почему, когда я голодный,
всегда чувствую запах карри?
225
00:21:10,311 --> 00:21:12,812
Сёкити, а ты, что хотел бы поесть?
226
00:21:13,939 --> 00:21:16,608
От таких разговоров только
ещё больше есть хочется.
227
00:21:17,485 --> 00:21:19,402
Да расслабься ты.
228
00:21:20,946 --> 00:21:22,322
Вот, например...
229
00:21:22,948 --> 00:21:24,616
...тэмпура из рыбы саланкс?
230
00:21:24,700 --> 00:21:27,911
Да, это так вкусно.
231
00:21:28,621 --> 00:21:32,290
Вот так наливаешь холодного пива...
232
00:21:37,379 --> 00:21:39,714
А-а... Залпом!
233
00:21:40,341 --> 00:21:41,549
Потом...
234
00:21:42,343 --> 00:21:47,305
... осторожно, чтобы не обжечься,
берешь тэмпура, макаешь в соус...
235
00:21:56,857 --> 00:21:58,858
Потом ещё пива...
236
00:22:03,197 --> 00:22:06,533
Чертовски вкусно.
237
00:22:06,700 --> 00:22:08,743
Стоящая вещь.
238
00:22:19,547 --> 00:22:22,966
Когда теперь придется так поесть?
239
00:22:26,178 --> 00:22:30,306
Что-то я раньше времени проголодался.
240
00:22:33,310 --> 00:22:36,813
Однако "До дня победы ничего не желай"...
241
00:22:38,315 --> 00:22:43,069
С другой стороны,
"На пустой желудок много не навоюешь"...
242
00:22:59,295 --> 00:23:00,920
Думаешь, надо поесть?
243
00:23:09,513 --> 00:23:10,930
Надо бы воды...
MediaInfo
General
Complete name : C:\Torrents\[ASIA]\Dawn.of.a.Filmmaker.The.Keisuke.Kinoshita.Story.2013\Dawn.of.a.Filmmaker.The.Keisuke.Kinoshita.Story.2013.avi
Format : AVI
Format/Info : Audio Video Interleave
File size : 1.10 GiB
Duration : 1h 36mn
Overall bit rate : 1 629 Kbps
Video
ID : 0
Format : MPEG-4 Visual
Format profile : Advanced Simple@L5
Format settings, BVOP : 2
Format settings, QPel : No
Format settings, GMC : No warppoints
Format settings, Matrix : Default (H.263)
Codec ID : XVID
Codec ID/Hint : XviD
Duration : 1h 36mn
Bit rate : 1 492 Kbps
Width : 688 pixels
Height : 368 pixels
Display aspect ratio : 1.870
Frame rate : 23.976 fps
Color space : YUV
Chroma subsampling : 4:2:0
Bit depth : 8 bits
Scan type : Progressive
Compression mode : Lossy
Bits/(Pixel*Frame) : 0.246
Stream size : 1.01 GiB (92%)
Writing library : XviD 64
Audio
ID : 1
Format : MPEG Audio
Format version : Version 1
Format profile : Layer 3
Codec ID : 55
Codec ID/Hint : MP3
Duration : 1h 36mn
Bit rate mode : Constant
Bit rate : 128 Kbps
Channel(s) : 2 channels
Sampling rate : 48.0 KHz
Compression mode : Lossy
Stream size : 88.4 MiB (8%)
Alignment : Aligned on interleaves
Interleave, duration : 42 ms (1.00 video frame)
Скриншот c названием фильма Скриншоты
Скачать

Скачать торрент! Кэйскэ Киносьта: В начале пути / Dawn of a Filmmaker The Keisuke Kinoshita Story / Hajimari no michi (Кэйити Хара / Keiichi Hara) [2013, Япония, биография, драма, DVDRip] Sub

Как скачивать? · Что такое торрент? · Рейтинг и ограничения

Сайт не распространяет и не хранит электронные версии произведений, а лишь предоставляет доступ к создаваемому пользователями каталогу ссылок на торрент-файлы, которые содержат только списки хеш-сумм

[Профиль] [ЛС]
Показать сообщения:    
Ответить на тему

Текущее время: Сегодня 16:54

Часовой пояс: GMT + 4



Вы не можете начинать темы
Вы не можете отвечать на сообщения
Вы не можете редактировать свои сообщения
Вы не можете удалять свои сообщения
Вы не можете голосовать в опросах
Вы не можете прикреплять файлы к сообщениям
Вы не можете скачивать файлы