Смертоносные ангелы / Lethal Angels / Devil Angel (Стив Чен / Steve Cheng) [2006, Гонконг, боевик, DVDRip] VO (Виктор Береговых)

Ответить на тему
 
Автор Сообщение

user ®

Стаж: 11 лет

Сообщений: 15151

Пост Пост: #1 от 20-Май-2014 23:30

[Цитировать]

Смертоносные ангелы / Lethal Angels / Devil Angel
Страна: Гонконг
Жанр: боевик
Год выпуска: 2006
Продолжительность: 01:36:19
Перевод: Одноголосый закадровый (Виктор Береговых)
Cубтитры: нет
Режиссер: Стив Чен / Steve Cheng
В ролях: Энди Он, Джордан Чан, Тинь Сум, Черри Ин, Джуэл Ли, Фун Хак Он, Юэнь Юэнь, Тони Хо
Описание: Молодая девушка по имени Йо Йо работает наемным убийцей.Несколько лет назад бандиты убили всю ее семью и только Йо Йо удалось спастись.Девушка попадает в дом Винни,женщины,которая пострадала от руки одного из боссов триады и организовала контору наемных убийц,где все приказы не подлежат обсуждению и выполняются беспрекословно.Йо Йо проходит обучение и берется за работу.В скором времени она получает задание проникнуть в дом Боуэна, отошедшего от дел босса триады и похитить из сейфа секретные документы,а после ликвидировать всю его семью,включая шестилетнюю дочь Сэнди.И теперь Йо Йо должна сделать выбор: выполнить приказ и убить ребенка или нарушить его и погибнуть...(В.Береговых)
Сэмпл: http://www.sendspace.com/file/14lxto
Качество видео: DVDRip
Формат видео: AVI
Видео: XviD, 720x416 (16:9), 23.976 fps, 1953 kbps avg, 0.272 bit/pixel
Аудио: AC3, 48.0 KHz, 192 Kbps, 2 channels
Релиз форума Tavernaclub
MediaInfo
General
Complete name : C:\Смертоносные ангелы\Смертоносные ангелы.avi
Format : AVI
Format/Info : Audio Video Interleave
File size : 1.45 GiB
Duration : 1h 36mn
Overall bit rate : 2 151 Kbps
Writing application : VirtualDubMod 1.5.4.1 (build 2178/release)
Writing library : VirtualDubMod build 2178/release
Video
ID : 0
Format : MPEG-4 Visual
Format profile : AdvancedSimple@L5
Format settings, BVOP : Yes
Format settings, QPel : No
Format settings, GMC : No warppoints
Format settings, Matrix : Custom
Codec ID : XVID
Codec ID/Hint : XviD
Duration : 1h 36mn
Bit rate : 1 953 Kbps
Width : 720 pixels
Height : 416 pixels
Display aspect ratio : 16:9
Frame rate : 23.976 fps
Resolution : 24 bits
Colorimetry : 4:2:0
Scan type : Progressive
Bits/(Pixel*Frame) : 0.272
Stream size : 1.31 GiB (91%)
Writing library : XviD 1.2.0.dev47 (UTC 2006-11-01)
Audio
ID : 1
Format : AC-3
Format/Info : Audio Coding 3
Codec ID : 2000
Duration : 1h 36mn
Bit rate mode : Constant
Bit rate : 192 Kbps
Channel(s) : 2 channels
Channel positions : L R
Sampling rate : 48.0 KHz
Stream size : 132 MiB (9%)
Alignment : Split accross interleaves
Interleave, duration : 96 ms (2.30 video frames)
Interleave, preload duration : 96 ms
Language : Russian
Скриншот c названием фильма Скриншоты
Скачать

Скачать торрент! Смертоносные ангелы / Lethal Angels / Devil Angel (Стив Чен / Steve Cheng) [2006, Гонконг, боевик, DVDRip] VO (Виктор Береговых)

Как скачивать? · Что такое торрент? · Рейтинг и ограничения

Сайт не распространяет и не хранит электронные версии произведений, а лишь предоставляет доступ к создаваемому пользователями каталогу ссылок на торрент-файлы, которые содержат только списки хеш-сумм

[Профиль] [ЛС]
Показать сообщения:    
Ответить на тему

Текущее время: Сегодня 12:28

Часовой пояс: GMT + 4



Вы не можете начинать темы
Вы не можете отвечать на сообщения
Вы не можете редактировать свои сообщения
Вы не можете удалять свои сообщения
Вы не можете голосовать в опросах
Вы не можете прикреплять файлы к сообщениям
Вы не можете скачивать файлы