Танцовщица из Идзу / The Izu Dancer / Izu no Odoriko (Кацуми Нишикава / Katsumi Nishikawa) [1974, Япония, мелодрама, HDRip] VO [Andi]

Ответить на тему
 
Автор Сообщение

user ®

Стаж: 11 лет

Сообщений: 15151

Пост Пост: #1 от 19-Май-2014 04:00

[Цитировать]

Танцовщица из Идзу / The Izu Dancer / Izu no Odoriko- -Страна: Япония
Жанр: мелодрама
Год выпуска: 1974
Продолжительность: 01:21:55-Перевод: Одноголосый закадровый [Andi]-Cубтитры: нет
Оригинальная аудиодорожка: нет
Режиссер: Кацуми Нишикава / Katsumi Nishikawa
В ролях: Момое Ямагути, Томокадзу Миура, Ацуко Итиномия, Маси Накая
Описание: Студент Мидзухара во время летних каникул путешествует по полуострову Идзу. В пути он встречает бродячих артистов. Труппу возглавляет Эйкити, с ним работает его жена и младшая сестра Каору. Между Каору и Мидзухара возникает симпатия...
Экранизация хрестоматийной новеллы классика японской литературы, лауреата Нобелевской Премии по литературе (1968) Ясунари Кавабата.
Релиз от -
Качество видео: HDRip
Формат видео: AVI
Видео: MPEG-4 Visual at 1134 Кбит/сек; 688 x 288 (2.389) at 23.976 fps
Аудио: MPEG Audio at 128 Кбит/сек; 2 канала, 48,0 КГц
Автор:
MediaInfo
Общее
Полное имя : D:\Фильмы\Азиатские\Танцовщица из Идзу\The Izu Dancer.1974.HDRip.XviD.745MB. rip by [Assassin's Creed].avi
Формат : AVI
Формат/Информация : Audio Video Interleave
Размер файла : 742 Мбайт
Продолжительность : 1 ч. 21 м.
Общий поток : 1272 Кбит/сек
Программа кодирования : VirtualDubMod 1.5.10.3 | www.virtualdub-fr.org || (build 2550/release)
Библиотека кодирования : VirtualDubMod build 2550/release
Видео
Идентификатор : 0
Формат : MPEG-4 Visual
Профиль формата : Advanced Simple@L5
Параметр BVOP формата : 2
Параметр QPel формата : Нет
Параметр GMC формата : Без точки перехода
Параметр матрицы формата : Default (H.263)
Идентификатор кодека : XVID
Идентификатор кодека/Подсказка : XviD
Продолжительность : 1 ч. 21 м.
Битрейт : 1134 Кбит/сек
Ширина : 688 пикселей
Высота : 288 пикселей
Соотношение сторон : 2,40:1
Частота кадров : 23,976 кадра/сек
Цветовое пространство : YUV
Субдискретизация насыщенности : 4:2:0
Битовая глубина : 8 бит
Тип развёртки : Прогрессивная
Метод сжатия : С потерями
Бит/(Пиксели*Кадры) : 0.239
Размер потока : 662 Мбайт (89%)
Библиотека кодирования : XviD 1.2.1 (UTC 2008-12-04)
Аудио
Идентификатор : 1
Формат : MPEG Audio
Версия формата : Version 1
Профиль формата : Layer 3
Идентификатор кодека : 55
Идентификатор кодека/Подсказка : MP3
Продолжительность : 1 ч. 21 м.
Вид битрейта : Постоянный
Битрейт : 128 Кбит/сек
Каналы : 2 канала
Частота : 48,0 КГц
Метод сжатия : С потерями
Размер потока : 74,7 Мбайт (10%)
Выравнивание : Соединение по промежуткам
Продолжительность промежутка : 42 мс. (1,00 видеокадр)
Время предзагрузки промежутка : 504 мс.
Библиотека кодирования : LAME3.99r
Настройки программы : -m s -V 4 -q 2 -lowpass 17 -b 128
Скриншот c названием фильма Скриншоты
Скачать

Скачать торрент! Танцовщица из Идзу / The Izu Dancer / Izu no Odoriko (Кацуми Нишикава / Katsumi Nishikawa) [1974, Япония, мелодрама, HDRip] VO [Andi]

Как скачивать? · Что такое торрент? · Рейтинг и ограничения

Сайт не распространяет и не хранит электронные версии произведений, а лишь предоставляет доступ к создаваемому пользователями каталогу ссылок на торрент-файлы, которые содержат только списки хеш-сумм

[Профиль] [ЛС]
Показать сообщения:    
Ответить на тему

Текущее время: Сегодня 20:39

Часовой пояс: GMT + 4



Вы не можете начинать темы
Вы не можете отвечать на сообщения
Вы не можете редактировать свои сообщения
Вы не можете удалять свои сообщения
Вы не можете голосовать в опросах
Вы не можете прикреплять файлы к сообщениям
Вы не можете скачивать файлы