Танцовщица из Идзу / The Izu Dancer / Izu no Odoriko (Кацуми Нишикава / Katsumi Nishikawa) [1974, Япония, мелодрама, HDRip] VO [Andi]+ original Jap Sub Rus

Ответить на тему
 
Автор Сообщение

user ®

Стаж: 11 лет

Сообщений: 15151

Пост Пост: #1 от 18-Май-2014 20:00

[Цитировать]

Танцовщица из Идзу / The Izu Dancer / Izu no Odoriko- -Страна: Япония
Жанр: мелодрама
Год выпуска: 1974
Продолжительность: 01:21:55-Перевод: Одноголосый закадровый [Andi]-Cубтитры: русские (М.Васильев aka lakdhf при поддержке Van San) [отдельно]
Оригинальная аудиодорожка: японский [отдельно]
Режиссер: Кацуми Нишикава / Katsumi Nishikawa
В ролях: Момое Ямагути, Томокадзу Миура, Ацуко Итиномия, Маси Накая
Описание: Студент Мидзухара во время летних каникул путешествует по полуострову Идзу. В пути он встречает бродячих артистов. Труппу возглавляет Эйкити, с ним работает его жена и младшая сестра Каору. Между Каору и Мидзухара возникает симпатия...
Экранизация хрестоматийной новеллы классика японской литературы, лауреата Нобелевской Премии по литературе (1968) Ясунари Кавабата.
Доп. информация:
звук не перекодировался.
за предоставленный BDRip большое спасибо Crimson Andrew
Релиз от -
Сэмпл: http://multi-up.com/974611
Качество видео: HDRip
Формат видео: AVI
Видео: MPEG-4 Visual at 2230 Кбит/сек; 720 x 304 (2.368) at 23.976 fps
Аудио: AC-3 at 256 Кбит/сек; 2 канала, 48,0 КГц [VO]
Аудио: AC-3 at 320 Кбит/сек; 2 канала, 48,0 КГц [Jap]
Автор:
MediaInfo
Общее
Полное имя : D:\Фильмы\Азиатские\Танцовщица из Идзу\The Izu Dancer.1974.HDRip.XviD.1400MB. rip by [Assassin's Creed]\The Izu Dancer.1974.HDRip.XviD.1400MB. rip by [Assassin's Creed].avi
Формат : AVI
Формат/Информация : Audio Video Interleave
Размер файла : 1,42 Гбайт
Продолжительность : 1 ч. 21 м.
Общий поток : 2496 Кбит/сек
Программа кодирования : VirtualDubMod 1.5.10.3 | www.virtualdub-fr.org || (build 2550/release)
Библиотека кодирования : VirtualDubMod build 2550/release
Видео
Идентификатор : 0
Формат : MPEG-4 Visual
Профиль формата : Advanced Simple@L5
Параметр BVOP формата : 1
Параметр QPel формата : Нет
Параметр GMC формата : Без точки перехода
Параметр матрицы формата : Default (MPEG)
Идентификатор кодека : XVID
Идентификатор кодека/Подсказка : XviD
Продолжительность : 1 ч. 21 м.
Битрейт : 2230 Кбит/сек
Ширина : 720 пикселей
Высота : 304 пикселя
Соотношение сторон : 2,35:1
Частота кадров : 23,976 кадра/сек
Цветовое пространство : YUV
Субдискретизация насыщенности : 4:2:0
Битовая глубина : 8 бит
Тип развёртки : Прогрессивная
Метод сжатия : С потерями
Бит/(Пиксели*Кадры) : 0.425
Размер потока : 1,27 Гбайт (89%)
Библиотека кодирования : XviD 1.2.1 (UTC 2008-12-04)
Аудио
Идентификатор : 1
Формат : AC-3
Формат/Информация : Audio Coding 3
Расширение режима : CM (complete main)
Параметр Endianness формата : Big
Идентификатор кодека : 2000
Продолжительность : 1 ч. 21 м.
Вид битрейта : Постоянный
Битрейт : 256 Кбит/сек
Каналы : 2 канала
Расположение каналов : Front: L R
Частота : 48,0 КГц
Битовая глубина : 16 бит
Метод сжатия : С потерями
Размер потока : 149 Мбайт (10%)
Выравнивание : Разделение по промежуткам
Продолжительность промежутка : 42 мс. (1,00 видеокадр)
Время предзагрузки промежутка : 500 мс.
Общее
Полное имя : D:\Фильмы\Азиатские\Танцовщица из Идзу\The Izu Dancer.1974.HDRip.XviD.1400MB. rip by [Assassin's Creed]\The Izu Dancer.1974.Japan.ac3
Формат : AC-3
Формат/Информация : Audio Coding 3
Размер файла : 187 Мбайт
Продолжительность : 1 ч. 21 м.
Режим общего битрейта : Постоянный
Общий поток : 320 Кбит/сек
Аудио
Формат : AC-3
Формат/Информация : Audio Coding 3
Расширение режима : CM (complete main)
Параметр Endianness формата : Big
Продолжительность : 1 ч. 21 м.
Вид битрейта : Постоянный
Битрейт : 320 Кбит/сек
Каналы : 2 канала
Расположение каналов : Front: L R
Частота : 48,0 КГц
Битовая глубина : 16 бит
Метод сжатия : С потерями
Размер потока : 187 Мбайт (100%)
Общее
Полное имя : D:\Фильмы\Азиатские\Танцовщица из Идзу\The Izu Dancer.1974.HDRip.XviD.1400MB. rip by [Assassin's Creed]\The Izu Dancer.Rus.srt
Формат : SubRip
Размер файла : 66,6 Кбайт
Текст
Формат : SubRip
Метод сжатия : Без потерь
Скриншот c названием фильма Скриншоты
Скачать

Скачать торрент! Танцовщица из Идзу / The Izu Dancer / Izu no Odoriko (Кацуми Нишикава / Katsumi Nishikawa) [1974, Япония, мелодрама, HDRip] VO [Andi]+ original Jap Sub Rus

Как скачивать? · Что такое торрент? · Рейтинг и ограничения

Сайт не распространяет и не хранит электронные версии произведений, а лишь предоставляет доступ к создаваемому пользователями каталогу ссылок на торрент-файлы, которые содержат только списки хеш-сумм

[Профиль] [ЛС]
Показать сообщения:    
Ответить на тему

Текущее время: Сегодня 04:21

Часовой пояс: GMT + 4



Вы не можете начинать темы
Вы не можете отвечать на сообщения
Вы не можете редактировать свои сообщения
Вы не можете удалять свои сообщения
Вы не можете голосовать в опросах
Вы не можете прикреплять файлы к сообщениям
Вы не можете скачивать файлы