Любовь в сигаретном дыму / Любовь в затяжке / Love in a Puff / Chi ming yu chun giu (Пан Хо Чён / Pang Ho-Cheung) [2010, Китай, Гонконг, мелодрама, комедия, HDRip] VO (Kenum) + Sub Rus + Sub Eng + Original Chin

Ответить на тему
 
Автор Сообщение

user ®

Стаж: 13 лет

Сообщений: 15071

Пост Пост: #1 от 18-Май-2014 10:30

[Цитировать]

Любовь в сигаретном дыму / Любовь в затяжке / Love in a Puff / Chi ming yu chun giu
Страна: Китай, Гонконг
Студия: Making Film, Media Asia Films
Жанр: мелодрама, комедия
Год выпуска: 2010
Продолжительность: 01:42:47
Перевод: Одноголосый закадровый Kenum по субтитрам MiTrIcHoJiSaN
Cубтитры: русские, английские
Оригинальная аудиодорожка: китайский
Режиссер: Пан Хо Чён / Pang Ho-Cheung
В ролях: Мириам Ён / Miriam Yeung, Шон Юэ / Shawn Yue, Тат-Мин Чён / Tat-Ming Cheung, Мэтт Чоу / Matt Chow
Описание: В 2007 году в Гонконге введен запрет на курение в закрытых помещениях и ограничение курения в отдельных общественных местах на улице.
Курильщики вынуждены устраивать перекуры в переулках, собираясь в стихийные компании. В одну из таких компаний попадает Чери, там она встречает Джимми. Никотиновые облака Чери и Джимми переплетаются, сближая их взаимной симпатией. Среди крикунов-курильщиков, травящих страшилки и пошлые истории, зарождается их неуклюжий роман. Все больше исходящих смс, все больше привязанность друг к другу. Удивительная эмоциональность в банальных разговорах ни о чем, в молчании - страсть и ревность. Сила двух любящих сердец то сталкивает их, то отбрасывает в разные стороны; их любовь подобна пластиковому пакету, подхваченному ветром, но не способному вырваться из бетонной западни Гонконга. Возможно, сигаретный дым придает их любви такие причудливые очертания...
II Сэмпл II IMDB II
Доп. информация:
Исходник BDRip720 (Love.in.A.Puff.2010.720p.BluRay.x264-LCHD [PublicHD]) найден в сети в свободном доступе.
За русскую дорогу спасибо Julia_Moonbeam
За русские субтитры спасибо MiTrIcHoJiSaN
Качество видео: HDRip
Формат видео: AVI
Видео: Xvid 720x304 (2.37:1) 24.0fps Bit rate 2091Kbps b/p 0.398
Аудио 1: AC3 48.0KHz 6ch 448 Kbps rus
Аудио 2: AC3 48.0KHz 6ch 448 Kbps chinese
Формат субтитров: softsub (SRT)
MediaInfo
Общее
Полное имя : E:\torrent\Love.in.A.Puff.2010.HDRip\Love.in.A.Puff.2010.HDRip.avi
Формат : AVI
Формат/Информация : Audio Video Interleave
Профиль формата : OpenDML
Размер файла : 2,16 Гбайт
Продолжительность : 1 ч. 42 м.
Общий поток : 3005 Кбит/сек
Программа кодирования : VirtualDubMod 1.5.10.2 (build 2540/release)
Библиотека кодирования : VirtualDubMod build 2540/release
Видео
Идентификатор : 0
Формат : MPEG-4 Visual
Профиль формата : Advanced Simple@L5
Параметр BVOP формата : 2
Параметр QPel формата : Нет
Параметр GMC формата : Без точки перехода
Параметр матрицы формата : Default (H.263)
Идентификатор кодека : XVID
Идентификатор кодека/Подсказка : XviD
Продолжительность : 1 ч. 42 м.
Битрейт : 2091 Кбит/сек
Ширина : 720 пикселей
Высота : 304 пикселя
Соотношение сторон : 2,35:1
Частота кадров : 24,000 кадра/сек
Цветовое пространство : YUV
Субдискретизация насыщенности : 4:2:0
Битовая глубина : 8 бит
Тип развёртки : Прогрессивная
Метод сжатия : С потерями
Бит/(Пиксели*Кадры) : 0.398
Размер потока : 1,50 Гбайт (70%)
Библиотека кодирования : XviD 1.2.1 (UTC 2008-12-04)
Аудио #1
Идентификатор : 1
Формат : AC-3
Формат/Информация : Audio Coding 3
Расширение режима : CM (complete main)
Параметр Endianness формата : Big
Идентификатор кодека : 2000
Продолжительность : 1 ч. 42 м.
Вид битрейта : Постоянный
Битрейт : 448 Кбит/сек
Каналы : 6 каналов
Расположение каналов : Front: L C R, Side: L R, LFE
Частота : 48,0 КГц
Битовая глубина : 16 бит
Метод сжатия : С потерями
Размер потока : 329 Мбайт (15%)
Выравнивание : Разделение по промежуткам
Продолжительность промежутка : 42 мс. (1,00 видеокадр)
Время предзагрузки промежутка : 500 мс.
Аудио #2
Идентификатор : 2
Формат : AC-3
Формат/Информация : Audio Coding 3
Расширение режима : CM (complete main)
Параметр Endianness формата : Big
Идентификатор кодека : 2000
Продолжительность : 1 ч. 42 м.
Вид битрейта : Постоянный
Битрейт : 448 Кбит/сек
Каналы : 6 каналов
Расположение каналов : Front: L C R, Side: L R, LFE
Частота : 48,0 КГц
Битовая глубина : 16 бит
Метод сжатия : С потерями
Размер потока : 329 Мбайт (15%)
Выравнивание : Разделение по промежуткам
Продолжительность промежутка : 42 мс. (1,00 видеокадр)
Время предзагрузки промежутка : 500 мс.
Скриншот c названием фильма Скриншоты
Скачать

Скачать торрент! Любовь в сигаретном дыму / Любовь в затяжке / Love in a Puff / Chi ming yu chun giu (Пан Хо Чён / Pang Ho-Cheung) [2010, Китай, Гонконг, мелодрама, комедия, HDRip] VO (Kenum) + Sub Rus + Sub Eng + Original Chin

Как скачивать? · Что такое торрент? · Рейтинг и ограничения

Сайт не распространяет и не хранит электронные версии произведений, а лишь предоставляет доступ к создаваемому пользователями каталогу ссылок на торрент-файлы, которые содержат только списки хеш-сумм

[Профиль] [ЛС]
Показать сообщения:    
Ответить на тему

Текущее время: Сегодня 11:38

Часовой пояс: GMT + 4



Вы не можете начинать темы
Вы не можете отвечать на сообщения
Вы не можете редактировать свои сообщения
Вы не можете удалять свои сообщения
Вы не можете голосовать в опросах
Вы не можете прикреплять файлы к сообщениям
Вы не можете скачивать файлы