Путь домой / Way Back Home (Джерри Лопес Синенен / Jerry Lopez Sineneng) [2011, Филиппины, драма, DVDRip-AVC] Original Tgl + Sub Rus

Ответить на тему
 
Автор Сообщение

user ®

Стаж: 11 лет

Сообщений: 15151

Пост Пост: #1 от 17-Май-2014 11:50

[Цитировать]

Путь домой / Way Back Home
Страна: Филиппины
Жанр: драма, семейная драма
Год выпуска: 2011
Продолжительность: 01:45:15
Перевод: Субтитры
Cубтитры: русские, английские
Оригинальная аудиодорожка: Тагалог
Режиссер: Джерри Лопес Синенен / Jerry Lopez Sineneng
В ролях: Кэтрин Бернардо, Джулия Монтес, Энрике Джил, Сэм Консепшн, Агот Исидро, Тонтон Гутьеррес и др.
Описание: Джессика Сантьяго (Джулия Монтес) и Ана Бартоломе (Кэтрин Бернардо) – две сестры, которые были разлучены на протяжении 12 долгих лет.
Джесси, хотя и отличница, выросла с чувством вины за то, что потеряла Ану,
не зная, что она стала сиротой и выросла в далекой рыбацкой деревушке.
Когда они встречаются в соревнованиях по плаванию, семья Сантьяго прилагает усилия, чтобы вернуть Ану назад. Но когда Ана возвращается домой, Джесси чувствует себя более обделенной и покинутой.
Их отношения ухудшаются, жизнь Джесси подвергается опасности.
В конце концов, две сестры находят дом, где лежат их сердца.
Сэмпл: http://yadi.sk/d/wwAZNVPiQTcKp
Качество видео: DVDRip-AVC
Формат видео: MKV
Видео: AVC, 720x464, Constant, 16:10, 733 Kbps, 29.970 fps
Аудио: AC3, 2 channels, 48.0 KHz, 192 Kbps (Tagalog)
Формат субтитров: softsub (SRT)
MediaInfo
General
Unique ID : 213599318269280593961992332644910857079 (0xA0B1BB79082CA308965CA2A1DDF37B77)
Complete name : \Way.Back.Home[2011]DvDrip.x264.AC3-RiZAL.mkv
Format : Matroska
Format version : Version 2
File size : 698 MiB
Duration : 1h 45mn
Overall bit rate mode : Variable
Overall bit rate : 927 Kbps
Encoded date : UTC 2014-05-16 15:37:06
Writing application : mkvmerge v4.4.0 ('Die Wiederkehr') сборка от Oct 31 2010 21:52:48
Writing library : libebml v1.0.0 + libmatroska v1.0.0
Video
ID : 1
Format : AVC
Format/Info : Advanced Video Codec
Format profile : High@L4.1
Format settings, CABAC : Yes
Format settings, ReFrames : 3 frames
Codec ID : V_MPEG4/ISO/AVC
Duration : 1h 45mn
Bit rate mode : Variable
Bit rate : 733 Kbps
Maximum bit rate : 40.0 Mbps
Width : 720 pixels
Height : 464 pixels
Display aspect ratio : 16:10
Frame rate mode : Constant
Frame rate : 29.970 fps
Original frame rate : 37.463 fps
Color space : YUV
Chroma subsampling : 4:2:0
Bit depth : 8 bits
Scan type : Progressive
Bits/(Pixel*Frame) : 0.073
Stream size : 540 MiB (77%)
Writing library : x264 core 116 r2074 2641b9e
Encoding settings : cabac=1 / ref=4 / deblock=1:0:0 / analyse=0x3:0x113 / me=hex / subme=7 / psy=1 / psy_rd=1.00:0.00 / mixed_ref=1 / me_range=16 / chroma_me=1 / trellis=1 / 8x8dct=1 / cqm=0 / deadzone=21,11 / fast_pskip=1 / chroma_qp_offset=-2 / threads=3 / sliced_threads=0 / slices=4 / nr=0 / decimate=1 / interlaced=fake / bluray_compat=1 / constrained_intra=0 / bframes=3 / b_pyramid=1 / b_adapt=1 / b_bias=0 / direct=1 / weightb=1 / open_gop=1 / weightp=0 / keyint=24 / keyint_min=2 / scenecut=40 / intra_refresh=0 / rc_lookahead=24 / rc=2pass / mbtree=1 / bitrate=733 / ratetol=1.0 / qcomp=0.60 / qpmin=0 / qpmax=69 / qpstep=4 / cplxblur=20.0 / qblur=0.5 / vbv_maxrate=40000 / vbv_bufsize=30000 / nal_hrd=vbr / ip_ratio=1.40 / aq=1:1.00
Language : Tagalog
Default : Yes
Forced : Yes
Color primaries : BT.601 NTSC
Transfer characteristics : BT.601
Matrix coefficients : BT.601
Audio
ID : 2
Format : AC-3
Format/Info : Audio Coding 3
Mode extension : CM (complete main)
Format settings, Endianness : Big
Codec ID : A_AC3
Duration : 1h 45mn
Bit rate mode : Constant
Bit rate : 192 Kbps
Channel(s) : 2 channels
Channel positions : Front: L R
Sampling rate : 48.0 KHz
Bit depth : 16 bits
Compression mode : Lossy
Stream size : 145 MiB (21%)
Title : tgl
Language : Tagalog
Default : Yes
Forced : Yes
Text #1
ID : 3
Format : UTF-8
Codec ID : S_TEXT/UTF8
Codec ID/Info : UTF-8 Plain Text
Title : rus
Language : Russian
Default : Yes
Forced : Yes
Text #2
ID : 4
Format : UTF-8
Codec ID : S_TEXT/UTF8
Codec ID/Info : UTF-8 Plain Text
Title : eng
Language : English
Default : No
Forced : No
Скриншот c названием фильма Скриншоты
Скачать

Скачать торрент! Путь домой / Way Back Home (Джерри Лопес Синенен / Jerry Lopez Sineneng) [2011, Филиппины, драма, DVDRip-AVC] Original Tgl + Sub Rus

Как скачивать? · Что такое торрент? · Рейтинг и ограничения

Сайт не распространяет и не хранит электронные версии произведений, а лишь предоставляет доступ к создаваемому пользователями каталогу ссылок на торрент-файлы, которые содержат только списки хеш-сумм

[Профиль] [ЛС]
Показать сообщения:    
Ответить на тему

Текущее время: Сегодня 05:36

Часовой пояс: GMT + 4



Вы не можете начинать темы
Вы не можете отвечать на сообщения
Вы не можете редактировать свои сообщения
Вы не можете удалять свои сообщения
Вы не можете голосовать в опросах
Вы не можете прикреплять файлы к сообщениям
Вы не можете скачивать файлы