Жена из ада / Wife From Hell (Томми Лау / Tommy Law) [2006, Гонконг, ужасы, мистика, драма, DVDRip] VO (Виктор Береговых)

Ответить на тему
 
Автор Сообщение

user ®

Стаж: 11 лет

Сообщений: 15151

Пост Пост: #1 от 16-Май-2014 18:00

[Цитировать]

Жена из ада / Wife From Hell
Страна: Гонконг
Жанр: ужасы, мистика, драма
Год выпуска: 2006
Продолжительность: 01:30:00
Перевод: Одноголосый закадровый (Виктор Береговых)
Cубтитры: нет
Режиссер: Томми Лау / Tommy Law
В ролях: Кэнди Ло, Джеки Луи, Эндрю Линь, Зуки Ли, Бонни Вон, Чой Юэнь Сань
Описание: Молодой доктор Кен Кван женат на красивой девушке по имени Мэй,которая больна астмой.Несколько лет назад Кен пожертвовал своей карьерой ради Мэй и отказался от стажировки в Германии.Открыв собственную клинику,Кен лечит старушек и следит за здоровьем Мэй, но злые языки не дают ему покоя.Все друзья шепчутся за спиной о том,что Мэй его бремя и что у Кена нет будущего.Однажды,совершая прогулку,Мэй поскользнулась и повисла на краю пропасти.На секунду представив свою жизнь без жены и вспомнив все сплетни и пересуды,Кен замешкался и не подал ей руку.Мэй упала,но иногда случается так,что мертвые возвращаются...(В.Береговых)
Сэмпл: http://www.sendspace.com/file/uohwyy
Качество видео: DVDRip
Формат видео: AVI
Видео: XviD, 720x416 (16:9), 23.976 fps, 1976 kbps avg, 0.275 bit/pixel
Аудио: AC3, 48.0 KHz, 192 Kbps, 2 channels
Релиз форума Tavernaclub
MediaInfo
General
Complete name : C:\Жена из ада\Жена из ада.avi
Format : AVI
Format/Info : Audio Video Interleave
File size : 1.37 GiB
Duration : 1h 30mn
Overall bit rate : 2 175 Kbps
Writing application : VirtualDubMod 1.5.4.1 (build 2178/release)
Writing library : VirtualDubMod build 2178/release
Video
ID : 0
Format : MPEG-4 Visual
Format profile : AdvancedSimple@L5
Format settings, BVOP : No
Format settings, QPel : No
Format settings, GMC : No warppoints
Format settings, Matrix : Custom
Codec ID : XVID
Codec ID/Hint : XviD
Duration : 1h 30mn
Bit rate : 1 976 Kbps
Width : 720 pixels
Height : 416 pixels
Display aspect ratio : 16:9
Frame rate : 23.976 fps
Resolution : 24 bits
Colorimetry : 4:2:0
Scan type : Progressive
Bits/(Pixel*Frame) : 0.275
Stream size : 1.24 GiB (91%)
Writing library : XviD 1.2.0.dev47 (UTC 2006-11-01)
Audio
ID : 1
Format : AC-3
Format/Info : Audio Coding 3
Codec ID : 2000
Duration : 1h 30mn
Bit rate mode : Constant
Bit rate : 192 Kbps
Channel(s) : 2 channels
Channel positions : L R
Sampling rate : 48.0 KHz
Stream size : 124 MiB (9%)
Alignment : Split accross interleaves
Interleave, duration : 96 ms (2.30 video frames)
Interleave, preload duration : 96 ms
Language : Russian
Скриншот c названием фильма Скриншоты
Скачать

Скачать торрент! Жена из ада / Wife From Hell (Томми Лау / Tommy Law) [2006, Гонконг, ужасы, мистика, драма, DVDRip] VO (Виктор Береговых)

Как скачивать? · Что такое торрент? · Рейтинг и ограничения

Сайт не распространяет и не хранит электронные версии произведений, а лишь предоставляет доступ к создаваемому пользователями каталогу ссылок на торрент-файлы, которые содержат только списки хеш-сумм

[Профиль] [ЛС]
Показать сообщения:    
Ответить на тему

Текущее время: Сегодня 15:46

Часовой пояс: GMT + 4



Вы не можете начинать темы
Вы не можете отвечать на сообщения
Вы не можете редактировать свои сообщения
Вы не можете удалять свои сообщения
Вы не можете голосовать в опросах
Вы не можете прикреплять файлы к сообщениям
Вы не можете скачивать файлы