Пять Бойцов из Шаолинь / Qi meng wu fu jiang / Five Fighters from Shaolin (Ших Хао Ко / Shih Hao Ko / Ko Shu-How) [1984, Тайвань, боевик, восточные единоборства, VHSRip] VO + Original Eng

Ответить на тему
 
Автор Сообщение

user ®

Стаж: 11 лет

Сообщений: 15151

Пост Пост: #1 от 16-Май-2014 14:50

[Цитировать]

Пять Бойцов из Шаолинь / Qi meng wu fu jiang / Five Fighters from Shaolin
Страна: Тайвань
Студия: Sheng Hsien Film Company
Жанр: боевик, восточные единоборства
Год выпуска: 1984
Продолжительность: 01:25:34
Перевод: Одноголосый закадровый
Cубтитры: нет
Оригинальная аудиодорожка: английский
Режиссер: Ших Хао Ко / Shih Hao Ko (Ko Shu-How)
В ролях: Чи Пинг Чанг, Шан Чанг, Шенг Чианг, Куо Чунг Чинг, Алан Чуй Чунг Сан, Ю Пин Лью
Описание: Пять учеников, каждый гроссмейстер в определенном стиле кунг-фу, которые объединились на старый мудрый стиль пьяного монаха.
II Сэмпл II IMDB II
Качество видео: VHSRip
Формат видео: AVI
Видео: Xvid 688x464 (3:2) 29.97fps Bit rate 2049Kbps b/p 0.214
Аудио 1: AC3 48.0 KHz 2ch. 192kbps rus vo
Аудио 2: AC3 48.0 KHz 2ch. 192kbps eng
MediaInfo
Общее
Полное имя : E:\torrent\Five.Fighters.from.Shaolin.1984.VHSRip.avi
Формат : AVI
Формат/Информация : Audio Video Interleave
Размер файла : 1,46 Гбайт
Продолжительность : 1 ч. 25 м.
Общий поток : 2450 Кбит/сек
Программа кодирования : VirtualDubMod 1.5.10.2 (build 2540/release)
Библиотека кодирования : VirtualDubMod build 2540/release
Видео
Идентификатор : 0
Формат : MPEG-4 Visual
Профиль формата : Advanced Simple@L5
Параметр BVOP формата : 2
Параметр QPel формата : Нет
Параметр GMC формата : Без точки перехода
Параметр матрицы формата : Default (H.263)
Идентификатор кодека : XVID
Идентификатор кодека/Подсказка : XviD
Продолжительность : 1 ч. 25 м.
Битрейт : 2049 Кбит/сек
Ширина : 688 пикселей
Высота : 464 пикселя
Соотношение сторон : 3:2
Частота кадров : 29,970 кадров/сек
Цветовое пространство : YUV
Субдискретизация насыщенности : 4:2:0
Битовая глубина : 8 бит
Тип развёртки : Прогрессивная
Метод сжатия : С потерями
Бит/(Пиксели*Кадры) : 0.214
Размер потока : 1,22 Гбайт (84%)
Библиотека кодирования : XviD 1.2.1 (UTC 2008-12-04)
Аудио #1
Идентификатор : 1
Формат : AC-3
Формат/Информация : Audio Coding 3
Расширение режима : CM (complete main)
Параметр Endianness формата : Big
Идентификатор кодека : 2000
Продолжительность : 1 ч. 25 м.
Вид битрейта : Постоянный
Битрейт : 192 Кбит/сек
Каналы : 2 канала
Расположение каналов : Front: L R
Частота : 48,0 КГц
Битовая глубина : 16 бит
Метод сжатия : С потерями
Размер потока : 118 Мбайт (8%)
Выравнивание : Разделение по промежуткам
Продолжительность промежутка : 33 мс. (1,00 видеокадр)
Время предзагрузки промежутка : 500 мс.
Аудио #2
Идентификатор : 2
Формат : AC-3
Формат/Информация : Audio Coding 3
Расширение режима : CM (complete main)
Параметр Endianness формата : Big
Идентификатор кодека : 2000
Продолжительность : 1 ч. 25 м.
Вид битрейта : Постоянный
Битрейт : 192 Кбит/сек
Каналы : 2 канала
Расположение каналов : Front: L R
Частота : 48,0 КГц
Битовая глубина : 16 бит
Метод сжатия : С потерями
Размер потока : 118 Мбайт (8%)
Выравнивание : Разделение по промежуткам
Продолжительность промежутка : 33 мс. (1,00 видеокадр)
Время предзагрузки промежутка : 500 мс.
Скриншот c названием фильма Скриншоты
Скачать

Скачать торрент! Пять Бойцов из Шаолинь / Qi meng wu fu jiang / Five Fighters from Shaolin (Ших Хао Ко / Shih Hao Ko / Ko Shu-How) [1984, Тайвань, боевик, восточные единоборства, VHSRip] VO + Original Eng

Как скачивать? · Что такое торрент? · Рейтинг и ограничения

Сайт не распространяет и не хранит электронные версии произведений, а лишь предоставляет доступ к создаваемому пользователями каталогу ссылок на торрент-файлы, которые содержат только списки хеш-сумм

[Профиль] [ЛС]
Показать сообщения:    
Ответить на тему

Текущее время: Сегодня 10:59

Часовой пояс: GMT + 4



Вы не можете начинать темы
Вы не можете отвечать на сообщения
Вы не можете редактировать свои сообщения
Вы не можете удалять свои сообщения
Вы не можете голосовать в опросах
Вы не можете прикреплять файлы к сообщениям
Вы не можете скачивать файлы