Starперцы / Last Vegas (Джон Тёртелтауб / Jon Turteltaub) [2013, США, комедия, драма, BDRip 1080p] Dub + MVO (Baibako) + 2x AVO (Гаврилов, Немахов) + Original (Eng) + Subs (Rus, Eng)

Ответить на тему
 
Автор Сообщение

user ®

Стаж: 7 лет 7 месяцев

Сообщений: 20008

Пост Пост: #1 от 16-Май-2014 00:25

[Цитировать]

Starперцы / Last Vegas

-
-Страна: США
Студия: CBS Films, Gidden Media, Good Universe, Outlaw Sinema
Жанр: комедия, драма
Год выпуска: 2013
Продолжительность: 01:45:25--Перевод 1: Профессиональный (дублированный) Blu-ray
Перевод 2: Любительский (многоголосый закадровый) Baibako
Перевод 3: Авторский (одноголосый закадровый) А. Гаврилов
Перевод 4: Авторский (одноголосый закадровый) Ю. Немахов
Cубтитры: русские, английские (full, SDH, SDH Commentary)
Оригинальная аудиодорожка: английский--Режиссер: Джон Тёртелтауб / Jon Turteltaub
В ролях: Майкл Дуглас, Роберт Де Ниро, Морган Фриман, Кевин Клайн, Мэри Стинберген, Джерри Феррара, Романи Малко, Роджер Барт, Джоанна Глисон, Майкл Или--Описание: Билли, Пэдди, Арчи и Сэм дружат больше полувека. И когда убежденный холостяк Билли наконец-то делает предложение своей юной подружке, великолепная четверка отправляется в Лас-Вегас, чтобы скинуть с себя груз прожитого и зажечь как в последний раз. Великовозрастные гуляки и не подозревают, как за десятилетия эволюционировал Город Грехов…--imdb | kinopoisk | Сэмпл--Тип релиза: BDRip 1080p [Last Vegas 2013 1080p BluRay DTS x264-DON]
Контейнер: MKV
Видео: MPEG-4 AVC / 20,0 Mbps / 1920x800 / 23,976 fps / 2,40:1 / High Profile 4.1
Аудио 1: Russian DTS / 5.1 / 48 kHz / 1509 kbps / 16 bits |Dub, Blu-ray|
Аудио 2: Russian DTS / 5.1 / 48 kHz / 1509 kbps / 24 bits |Baibako|
Аудио 3: Russian DTS / 5.1 / 48 kHz / 1509 kbps / 24 bits |А. Гаврилов|
Аудио 4: Russian DTS / 5.1 / 48 kHz / 1509 kbps / 24 bits |Ю. Немахов|
Аудио 5: English DTS / 5.1 / 48 kHz / 1509 kbps / 24 bits |original|
Аудио 6: English AC3 / 2.0 / 48 kHz / 192 kbps / 16 bits / DN -4dB / Dolby Surround |Descriptive|
Аудио 7: English AC3 / 2.0 / 48 kHz / 192 kbps / 16 bits / DN -4dB |Commentary|
Формат субтитров: softsub [SRT]

MediaInfo
Общее
Уникальный идентификатор                 : 207658253041206239367727938099749657093 (0x9C39865787FC99619C077E3E13C91A05)
Полное имя                               : G:\HD\Starперцы.2013.BDRip.(1080p).mkv
Формат                                   : Matroska
Версия формата                           : Version 4 / Version 2
Размер файла                             : 20,6 Гбайт
Продолжительность                        : 1 ч. 45 м.
Общий поток                              : 27,9 Мбит/сек
Дата кодирования                         : UTC 2014-05-14 18:25:12
Программа кодирования                    : mkvmerge v6.9.1 ('Blue Panther') 64bit built on Apr 18 2014 18:23:38
Библиотека кодирования                   : libebml v1.3.0 + libmatroska v1.4.1
Attachment                               : Yes
Видео
Идентификатор                            : 1
Формат                                   : AVC
Формат/Информация                        : Advanced Video Codec
Профиль формата                          : High@L4.1
Параметр CABAC формата                   : Да
Параметр ReFrames формата                : 5 кадров
Идентификатор кодека                     : V_MPEG4/ISO/AVC
Продолжительность                        : 1 ч. 45 м.
Битрейт                                  : 20,0 Мбит/сек
Ширина                                   : 1920 пикселей
Высота                                   : 800 пикселей
Соотношение сторон                       : 2,40:1
Режим частоты кадров                     : Постоянный
Частота кадров                           : 23,976 кадра/сек
Цветовое пространство                    : YUV
Субдискретизация насыщенности            : 4:2:0
Битовая глубина                          : 8 бит
Тип развёртки                            : Прогрессивная
Бит/(Пиксели*Кадры)                      : 0.543
Размер потока                            : 14,3 Гбайт (70%)
Заголовок                                : Last Vegas 2013 1080p BluRay DTS x264-DON
Библиотека кодирования                   : x264 core 142 r2409+42 04be48a tMod [8-bit@all X86_64]
Настройки программы                      : cabac=1 / ref=5 / deblock=1:-3:-3 / analyse=0x3:0x133 / me=umh / subme=11 / psy=1 / fade_compensate=0.00 / psy_rd=1.00:0.00 / mixed_ref=1 / me_range=30 / chroma_me=1 / trellis=2 / 8x8dct=1 / cqm=0 / deadzone=21,11 / fast_pskip=0 / chroma_qp_offset=-2 / threads=6 / lookahead_threads=1 / sliced_threads=0 / nr=0 / decimate=0 / interlaced=0 / bluray_compat=0 / constrained_intra=0 / fgo=0 / bframes=8 / b_pyramid=2 / b_adapt=2 / b_bias=0 / direct=3 / weightb=1 / open_gop=0 / weightp=2 / keyint=250 / keyint_min=23 / scenecut=40 / intra_refresh=0 / rc_lookahead=60 / rc=2pass / mbtree=0 / bitrate=20000 / ratetol=1.0 / qcomp=0.70 / qpmin=0:0:0 / qpmax=69:69:69 / qpstep=4 / cplxblur=20.0 / qblur=0.5 / vbv_maxrate=50000 / vbv_bufsize=62500 / nal_hrd=none / filler=0 / ip_ratio=1.30 / pb_ratio=1.10 / aq=3:0.80 / aq-sensitivity=8.00 / aq-factor=0.90:1.00:1.10 / aq2=1:0.70 / aq2-sensitivity=12.00 / aq2-factor=0.90:1.00:1.10 / aq3=0
Язык                                     : English
Default                                  : Да
Forced                                   : Нет
Коэффициенты матрицы                     : BT.709
Аудио #1
Идентификатор                            : 2
Формат                                   : DTS
Формат/Информация                        : Digital Theater Systems
Режим                                    : 16
Параметр Endianness формата              : Big
Идентификатор кодека                     : A_DTS
Продолжительность                        : 1 ч. 45 м.
Вид битрейта                             : Постоянный
Битрейт                                  : 1509 Кбит/сек
Каналы                                   : 6 каналов
Расположение каналов                     : Front: L C R, Side: L R, LFE
Частота                                  : 48,0 КГц
Битовая глубина                          : 16 бит
Метод сжатия                             : С потерями
Размер потока                            : 1,11 Гбайт (5%)
Заголовок                                : Dub, Blu-ray
Язык                                     : Russian
Default                                  : Да
Forced                                   : Нет
Аудио #2
Идентификатор                            : 3
Формат                                   : DTS
Формат/Информация                        : Digital Theater Systems
Режим                                    : 16
Параметр Endianness формата              : Big
Идентификатор кодека                     : A_DTS
Продолжительность                        : 1 ч. 45 м.
Вид битрейта                             : Постоянный
Битрейт                                  : 1509 Кбит/сек
Каналы                                   : 6 каналов
Расположение каналов                     : Front: L C R, Side: L R, LFE
Частота                                  : 48,0 КГц
Битовая глубина                          : 24 бит
Метод сжатия                             : С потерями
Размер потока                            : 1,11 Гбайт (5%)
Заголовок                                : MVO, Baibako
Язык                                     : Russian
Default                                  : Нет
Forced                                   : Нет
Аудио #3
Идентификатор                            : 4
Формат                                   : DTS
Формат/Информация                        : Digital Theater Systems
Режим                                    : 16
Параметр Endianness формата              : Big
Идентификатор кодека                     : A_DTS
Продолжительность                        : 1 ч. 45 м.
Вид битрейта                             : Постоянный
Битрейт                                  : 1509 Кбит/сек
Каналы                                   : 6 каналов
Расположение каналов                     : Front: L C R, Side: L R, LFE
Частота                                  : 48,0 КГц
Битовая глубина                          : 24 бит
Метод сжатия                             : С потерями
Размер потока                            : 1,11 Гбайт (5%)
Заголовок                                : А. Гаврилов
Язык                                     : Russian
Default                                  : Нет
Forced                                   : Нет
Аудио #4
Идентификатор                            : 5
Формат                                   : DTS
Формат/Информация                        : Digital Theater Systems
Режим                                    : 16
Параметр Endianness формата              : Big
Идентификатор кодека                     : A_DTS
Продолжительность                        : 1 ч. 45 м.
Вид битрейта                             : Постоянный
Битрейт                                  : 1509 Кбит/сек
Каналы                                   : 6 каналов
Расположение каналов                     : Front: L C R, Side: L R, LFE
Частота                                  : 48,0 КГц
Битовая глубина                          : 24 бит
Метод сжатия                             : С потерями
Размер потока                            : 1,11 Гбайт (5%)
Заголовок                                : Ю. Немахов
Язык                                     : Russian
Default                                  : Нет
Forced                                   : Нет
Аудио #5
Идентификатор                            : 6
Формат                                   : DTS
Формат/Информация                        : Digital Theater Systems
Режим                                    : 16
Параметр Endianness формата              : Big
Идентификатор кодека                     : A_DTS
Продолжительность                        : 1 ч. 45 м.
Вид битрейта                             : Постоянный
Битрейт                                  : 1509 Кбит/сек
Каналы                                   : 6 каналов
Расположение каналов                     : Front: L C R, Side: L R, LFE
Частота                                  : 48,0 КГц
Битовая глубина                          : 24 бит
Метод сжатия                             : С потерями
Размер потока                            : 1,11 Гбайт (5%)
Язык                                     : English
Default                                  : Нет
Forced                                   : Нет
Аудио #6
Идентификатор                            : 7
Формат                                   : AC-3
Формат/Информация                        : Audio Coding 3
Профиль формата                          : Dolby Digital
Расширение режима                        : CM (complete main)
Параметр Endianness формата              : Big
Идентификатор кодека                     : A_AC3
Продолжительность                        : 1 ч. 45 м.
Вид битрейта                             : Постоянный
Битрейт                                  : 192 Кбит/сек
Каналы                                   : 2 канала
Расположение каналов                     : Front: L R
Частота                                  : 48,0 КГц
Битовая глубина                          : 16 бит
Метод сжатия                             : С потерями
Размер потока                            : 145 Мбайт (1%)
Заголовок                                : Descriptive
Язык                                     : English
Default                                  : Нет
Forced                                   : Нет
Аудио #7
Идентификатор                            : 8
Формат                                   : AC-3
Формат/Информация                        : Audio Coding 3
Расширение режима                        : CM (complete main)
Параметр Endianness формата              : Big
Идентификатор кодека                     : A_AC3
Продолжительность                        : 1 ч. 45 м.
Вид битрейта                             : Постоянный
Битрейт                                  : 192 Кбит/сек
Каналы                                   : 2 канала
Расположение каналов                     : Front: L R
Частота                                  : 48,0 КГц
Битовая глубина                          : 16 бит
Метод сжатия                             : С потерями
Размер потока                            : 145 Мбайт (1%)
Заголовок                                : Commentary
Язык                                     : English
Default                                  : Нет
Forced                                   : Нет
Текст #1
Идентификатор                            : 9
Формат                                   : UTF-8
Идентификатор кодека                     : S_TEXT/UTF8
Идентификатор кодека/Информация          : UTF-8 Plain Text
Язык                                     : Russian
Default                                  : Нет
Forced                                   : Нет
Текст #2
Идентификатор                            : 10
Формат                                   : UTF-8
Идентификатор кодека                     : S_TEXT/UTF8
Идентификатор кодека/Информация          : UTF-8 Plain Text
Заголовок                                : full
Язык                                     : English
Default                                  : Нет
Forced                                   : Нет
Текст #3
Идентификатор                            : 11
Формат                                   : UTF-8
Идентификатор кодека                     : S_TEXT/UTF8
Идентификатор кодека/Информация          : UTF-8 Plain Text
Заголовок                                : SDH
Язык                                     : English
Default                                  : Нет
Forced                                   : Нет
Текст #4
Идентификатор                            : 12
Формат                                   : UTF-8
Идентификатор кодека                     : S_TEXT/UTF8
Идентификатор кодека/Информация          : UTF-8 Plain Text
Заголовок                                : SDH Commentary
Язык                                     : English
Default                                  : Нет
Forced                                   : Нет
Меню
00:00:00.000                             : :Chapter 01
00:10:49.190                             : :Chapter 02
00:18:05.084                             : :Chapter 03
00:21:24.700                             : :Chapter 04
00:25:12.302                             : :Chapter 05
00:31:01.067                             : :Chapter 06
00:36:27.018                             : :Chapter 07
00:41:53.886                             : :Chapter 08
00:46:14.354                             : :Chapter 09
00:54:12.457                             : :Chapter 10
00:59:52.797                             : :Chapter 11
01:05:47.276                             : :Chapter 12
01:10:35.731                             : :Chapter 13
01:14:57.034                             : :Chapter 14
01:18:30.414                             : :Chapter 15
01:21:47.110                             : :Chapter 16
01:26:33.938                             : :Chapter 17
01:32:27.708                             : :Chapter 18
01:37:18.999                             : :Chapter 19
01:41:14.651                             : :Chapter 20
Скриншоты Дополнительно
Цитата:
За дубляж спасибо - hdclub
Цитата:
За MVO - Baibako спасибо - bluebird-hd
За работу над дорожкой спасибо АДмин
Цитата:
За перевода А. Гаврилова спасибо пользователям Клуба переводов новинок и классики у Гаврилова.
За работу над дорожкой спасибо KpucTo161
Цитата:
За перевода Ю. Немахова спасибо пользователям форума е180: oleg-k, jorn2, MyxAmoP, Эдуард, Loki1982, Gennady 2013, DMX-92, vik19662007, tide, foxlight, Iceman, Savely, luka69, xerman13, zeleniy, olegsoleg, carnivale, Chistobaev, kiruxa-k, Daniel Rock, SavineX78 , ARTYq, Марлон.
За работу над дорожкой спасибо Bloodymetal.
Last Vegas 2013 1080p BluRay DTS x264-DON
INFO
RELEASE DATE........: 4/04/2014
RELEASE SIZE........: 15.98 GB
RUNTIME.............: 1h:45m:25s
VIDEO CODEC.........: x264 r2409 tMod, 2pass, L4.1
VIDEO BITRATE.......: Variable @ 19994 Kbps (58.92% of source)
RESOLUTION..........: 1920x800 (OAR)
FRAMERATE...........: 23.976 fps
AUDIO 1.............: English DTS Core 5.1 @ 1.5 Mbps
AUDIO 2.............: English Commentary AC3 2.0 @ 192 Kbps
                      by Director Jon Turteltaub and Writer Dan Fogelman
SUBTITLES - SRT.....: Brazilian, Chinese, Croatian, Czech, Danish, Dutch, English,
                      English SDH, English SDH Commentary, Finnish, French,
                      French forced, German, German forced,  Hungarian,
                      Icelandic, Italian, Italian Commentary, Italian forced,
                      Japanese, Norwegian, Portuguese, Romanian, Slovenian,
                      Spanish, Spanish Commentary, Spanish forced, Swedish  (UTF-8)
CHAPTERS............: Included (Numbered)
SOURCE..............: 1080p EUR Blu-ray AVC DTS-HD MA 5.1-GroupHDS (thanks Pedro34)
x264 LOG
x264 [info]: frame I:1450   Avg QP:15.49  size:266495
x264 [info]: frame P:33917  Avg QP:16.86  size:134672
x264 [info]: frame B:116283 Avg QP:16.99  size: 93341
x264 [info]: consecutive B-frames: 2.1% 4.7% 6.6% 25.7% 17.3% 30.3% 6.1% 5.5% 1.8%
x264 [info]: encoded 151650 frames, 2.282 fps, 19994.14 kb/s, 15076 MB
NOTES
New encode from new superior source.
Source vs Encode


Скачать

Скачать торрент!

Как скачивать? · Что такое торрент? · Рейтинг и ограничения

Сайт не распространяет и не хранит электронные версии произведений, а лишь предоставляет доступ к создаваемому пользователями каталогу ссылок на торрент-файлы, которые содержат только списки хеш-сумм

[Профиль] [ЛС]
Показать сообщения:    
Ответить на тему

Текущее время: Сегодня 02:25

Часовой пояс: GMT + 4



Вы не можете начинать темы
Вы не можете отвечать на сообщения
Вы не можете редактировать свои сообщения
Вы не можете удалять свои сообщения
Вы не можете голосовать в опросах
Вы не можете прикреплять файлы к сообщениям
Вы не можете скачивать файлы