Легион / Casshern (Казуаки Кирия / Kazuaki Kiriya) [2004, Япония, фантастика, приключения, боевик, HDRip] DVO + original Jap Sub (rus, eng, ita)

Ответить на тему
 
Автор Сообщение

user ®

Стаж: 11 лет

Сообщений: 15151

Пост Пост: #1 от 10-Май-2014 14:50

[Цитировать]

Легион / Casshern- -Страна: Япония
Жанр: фантастика, приключения, боевик
Год выпуска: 2004
Продолжительность: 02:22:19-Перевод: Профессиональный (двухголосый закадровый) [R5]-Cубтитры: русские, английские, итальянские [отдельно]
Оригинальная аудиодорожка: японский [отдельно]
Режиссер: Казуаки Кирия / Kazuaki Kiriya
В ролях: Юсукэ Исейа, Кумико Асо, Акира Тэрао, Канако Хигути, Фумиё Кохината, Хироюки Миясако, Маюми Сэда, Дзюн Канамэ, Хидэтоси Нисидзима, Мицухиро Оикава...
Описание: В далеком будущем Азия стала центром мировой экономики. Полицейские оккупационные власти руководят странами Евразии, жестоко подавляя любые попытки сопротивления. На далеких фронтах не утихает война, природные ресурсы на исходе, и даже в мирных городах Японии лютуют страшные болезни.
В связи с возрастающим уровнем смертности населения, правительство решает одобрить новый проект доктора Азумы, лучшего специалиста в области генной инженерии. Суть эксперимента предельно проста — выращивать любые человеческие органы и части тел, и пересаживать их людям в случае надобности. Но проект завершается неудачей — выращенные Азумой тела оживают! Армия клонов развязывает войну против своих же создателей. У человечества остается лишь одна надежда на спасение: Тэтсио — сын доктора Азумы.
Погибший на войне, и вернувшийся к жизни благодаря эксперименту отца, Тэтсио наделен необычайной силой, а его тело заключено в особый сверхпрочный скафандр, что делает его практически неуязвимым…
Релиз от -
Сэмпл: http://multi-up.com/972808
Качество видео: HDRip
Формат видео: AVI
Видео: MPEG-4 Visual at 1993 Кбит/сек; 720 x 304 (2.368) at 23.976 fps
Аудио: AC-3 at 192 Кбит/сек; 2 канала, 48,0 КГц [DVO]
Аудио: AC-3 at 448 Кбит/сек; 6 каналов, 48,0 КГц [Jap]
Автор:
MediaInfo
Общее
Полное имя : D:\Фильмы\Азиатские\Легион\Casshern 2004.HDRip.XviD.2200MB. rip by [Assassin's Creed]\Casshern 2004.HDRip.XviD.2200MB. rip by [Assassin's Creed].avi
Формат : AVI
Формат/Информация : Audio Video Interleave
Профиль формата : OpenDML
Размер файла : 2,18 Гбайт
Продолжительность : 2 ч. 22 м.
Общий поток : 2197 Кбит/сек
Программа кодирования : VirtualDubMod 1.5.10.3 | www.virtualdub-fr.org || (build 2550/release)
Библиотека кодирования : VirtualDubMod build 2550/release
Видео
Идентификатор : 0
Формат : MPEG-4 Visual
Профиль формата : Advanced Simple@L5
Параметр BVOP формата : 1
Параметр QPel формата : Нет
Параметр GMC формата : Без точки перехода
Параметр матрицы формата : Default (MPEG)
Идентификатор кодека : XVID
Идентификатор кодека/Подсказка : XviD
Продолжительность : 2 ч. 22 м.
Битрейт : 1993 Кбит/сек
Ширина : 720 пикселей
Высота : 304 пикселя
Соотношение сторон : 2,35:1
Частота кадров : 23,976 кадра/сек
Цветовое пространство : YUV
Субдискретизация насыщенности : 4:2:0
Битовая глубина : 8 бит
Тип развёртки : Прогрессивная
Метод сжатия : С потерями
Бит/(Пиксели*Кадры) : 0.380
Размер потока : 1,98 Гбайт (91%)
Библиотека кодирования : XviD 1.2.1 (UTC 2008-12-04)
Аудио
Идентификатор : 1
Формат : AC-3
Формат/Информация : Audio Coding 3
Расширение режима : CM (complete main)
Параметр Endianness формата : Big
Идентификатор кодека : 2000
Продолжительность : 2 ч. 22 м.
Вид битрейта : Постоянный
Битрейт : 192 Кбит/сек
Каналы : 2 канала
Расположение каналов : Front: L R
Частота : 48,0 КГц
Битовая глубина : 16 бит
Метод сжатия : С потерями
Размер потока : 195 Мбайт (9%)
Выравнивание : Разделение по промежуткам
Продолжительность промежутка : 42 мс. (1,00 видеокадр)
Время предзагрузки промежутка : 500 мс.
Общее
Полное имя : D:\Фильмы\Азиатские\Легион\Casshern 2004.HDRip.XviD.2200MB. rip by [Assassin's Creed]\Casshern 2004.HDRip.XviD.2200MB. rip by [Assassin's Creed].Eng.srt
Формат : SubRip
Размер файла : 49,0 Кбайт
Текст
Формат : SubRip
Метод сжатия : Без потерь
Общее
Полное имя : D:\Фильмы\Азиатские\Легион\Casshern 2004.HDRip.XviD.2200MB. rip by [Assassin's Creed]\Casshern 2004.HDRip.XviD.2200MB. rip by [Assassin's Creed].Ita.srt
Формат : SubRip
Размер файла : 70,5 Кбайт
Текст
Формат : SubRip
Метод сжатия : Без потерь
Общее
Полное имя : D:\Фильмы\Азиатские\Легион\Casshern 2004.HDRip.XviD.2200MB. rip by [Assassin's Creed]\Casshern 2004.HDRip.XviD.2200MB. rip by [Assassin's Creed].Japan.ac3
Формат : AC-3
Формат/Информация : Audio Coding 3
Размер файла : 456 Мбайт
Продолжительность : 2 ч. 22 м.
Режим общего битрейта : Постоянный
Общий поток : 448 Кбит/сек
Аудио
Формат : AC-3
Формат/Информация : Audio Coding 3
Расширение режима : CM (complete main)
Параметр Endianness формата : Big
Продолжительность : 2 ч. 22 м.
Вид битрейта : Постоянный
Битрейт : 448 Кбит/сек
Каналы : 6 каналов
Расположение каналов : Front: L C R, Side: L R, LFE
Частота : 48,0 КГц
Битовая глубина : 16 бит
Метод сжатия : С потерями
Размер потока : 456 Мбайт (100%)
Общее
Полное имя : D:\Фильмы\Азиатские\Легион\Casshern 2004.HDRip.XviD.2200MB. rip by [Assassin's Creed]\Casshern 2004.HDRip.XviD.2200MB. rip by [Assassin's Creed].Rus.srt
Формат : SubRip
Размер файла : 81,7 Кбайт
Текст
Формат : SubRip
Метод сжатия : Без потерь
Скриншоты
Скачать

Скачать торрент! Легион / Casshern (Казуаки Кирия / Kazuaki Kiriya) [2004, Япония, фантастика, приключения, боевик, HDRip] DVO + original Jap Sub (rus, eng, ita)

Как скачивать? · Что такое торрент? · Рейтинг и ограничения

Сайт не распространяет и не хранит электронные версии произведений, а лишь предоставляет доступ к создаваемому пользователями каталогу ссылок на торрент-файлы, которые содержат только списки хеш-сумм

[Профиль] [ЛС]
Показать сообщения:    
Ответить на тему

Текущее время: Сегодня 17:36

Часовой пояс: GMT + 4



Вы не можете начинать темы
Вы не можете отвечать на сообщения
Вы не можете редактировать свои сообщения
Вы не можете удалять свои сообщения
Вы не можете голосовать в опросах
Вы не можете прикреплять файлы к сообщениям
Вы не можете скачивать файлы