Террор в прямом эфире / The Terror Live / Deu tae-ro ra-i-beu (Ким Бён У / Kim Byeong Woo) [2013, Южная Корея, триллер, HDRip] DVO (GREEN TEA)

Ответить на тему
 
Автор Сообщение

user ®

Стаж: 11 лет

Сообщений: 15151

Пост Пост: #1 от 08-Май-2014 00:45

[Цитировать]

Террор в прямом эфире / The Terror Live / Deu tae-ro ra-i-beu
Страна: Южная Корея
Студия: Cine2000
Жанр: триллер
Год выпуска: 2013
Продолжительность: 01:38:01
Перевод: Профессиональный (двухголосый закадровый) GREEN TEA
Cубтитры: нет
Оригинальная аудиодорожка: нет
Режиссер: Ким Бён У / Kim Byeong Woo
В ролях: Ха Чон У, Ли Кён Ён, Чжон Хе Чжин
Описание: Радио ведущий программы новостей получает звонок от террориста, который угрожает взорвать мост над рекой Хан. Ведущий думает, что это розыгрыш, и беспечно говорит ему сделать это. Спустя несколько секунд происходит взрыв....
Сэмпл: http://multi-up.com/972278
Тип релиза: HDRip (исходник BDRip 1080p)
Контейнер: AVI
Видео: XviD, 929 kbps, 656 х 352 pixels, 23.976 fps
Аудио: MP3, 128 Kbps, 2 channels, 48.0 KHz

MediaInfo
General
Complete name : D:\The.Terror.Live.2013.HDRip.745mb.avi
Format : AVI
Format/Info : Audio Video Interleave
File size : 747 MiB
Duration : 1h 38mn
Overall bit rate : 1 066 Kbps
Writing application : VirtualDubMod 1.5.10.3 | www.virtualdub-fr.org || (build 2550/release)
Writing library : VirtualDubMod build 2550/release
Video
ID : 0
Format : MPEG-4 Visual
Format profile : Advanced Simple@L5
Format settings, BVOP : Yes
Format settings, QPel : No
Format settings, GMC : No warppoints
Format settings, Matrix : Default (MPEG)
Codec ID : XVID
Codec ID/Hint : XviD
Duration : 1h 38mn
Bit rate : 929 Kbps
Width : 656 pixels
Height : 352 pixels
Display aspect ratio : 1.85:1
Frame rate : 23.976 fps
Color space : YUV
Chroma subsampling : 4:2:0
Bit depth : 8 bits
Scan type : Progressive
Compression mode : Lossy
Bits/(Pixel*Frame) : 0.168
Stream size : 651 MiB (87%)
Writing library : XviD 73
Audio
ID : 1
Format : MPEG Audio
Format version : Version 1
Format profile : Layer 3
Codec ID : 55
Codec ID/Hint : MP3
Duration : 1h 38mn
Bit rate mode : Constant
Bit rate : 128 Kbps
Channel(s) : 2 channels
Sampling rate : 48.0 KHz
Compression mode : Lossy
Stream size : 89.7 MiB (12%)
Alignment : Aligned on interleaves
Interleave, duration : 42 ms (1.00 video frame)
Interleave, preload duration : 504 ms
Writing library : LAME3.99r
Encoding settings : -m s -V 4 -q 2 -lowpass 17 -b 128
Скриншот c названием фильма Скриншоты
Скачать

Скачать торрент! Террор в прямом эфире / The Terror Live / Deu tae-ro ra-i-beu (Ким Бён У / Kim Byeong Woo) [2013, Южная Корея, триллер, HDRip] DVO (GREEN TEA)

Как скачивать? · Что такое торрент? · Рейтинг и ограничения

Сайт не распространяет и не хранит электронные версии произведений, а лишь предоставляет доступ к создаваемому пользователями каталогу ссылок на торрент-файлы, которые содержат только списки хеш-сумм

[Профиль] [ЛС]
Показать сообщения:    
Ответить на тему

Текущее время: Сегодня 16:47

Часовой пояс: GMT + 4



Вы не можете начинать темы
Вы не можете отвечать на сообщения
Вы не можете редактировать свои сообщения
Вы не можете удалять свои сообщения
Вы не можете голосовать в опросах
Вы не можете прикреплять файлы к сообщениям
Вы не можете скачивать файлы