Правосудие якудзы: эротический кодекс чести / Yakuza Justice: Erotic Code of Honor / Yakuza Goddess - Lust and Honor (Тацуми Кумаширо / Tatsumi Kumashiro) [1973, Япония, боевик, драма, эротика, DVDRip] VO (Виктор Береговых)

Ответить на тему
 
Автор Сообщение

user ®

Стаж: 11 лет

Сообщений: 15151

Пост Пост: #1 от 07-Май-2014 19:35

[Цитировать]

Правосудие якудзы: эротический кодекс чести / Yakuza Justice: Erotic Code of Honor / Yakuza Goddess - Lust and Honor
Страна: Япония
Жанр: боевик, драма, эротика
Год выпуска: 1973
Продолжительность: 01:25:48
Перевод: Одноголосый закадровый (Виктор Береговых)
Cубтитры: нет
Режиссер: Тацуми Кумаширо / Tatsumi Kumashiro
В ролях: Джиро Окадзаки, Нозоми Ясуда, Моеко Езава, Тацуми Кумаширо, Тэруо Матсуяма, Такао Нагаи, Нахоми Ока, Нагатоси Сакамото
Описание: Странствующий монах Ранзетсу находит в реке мертвую беременную женщину.Женщина умерла совсем недавно и ребенок внутри нее еще жив. Ранзетсу помогает ему появиться на свет и отдает мальчика в храм.Спустя 23 года монах Сейген (спасенный мальчик) спасает Мисако - дочь одного из боссов якудзы, на которую устроили охоту люди другого босса якудзы.Сейген убивает бандитов и изгоняет из своей души Будду.Молодой парень становится преступником и уже никто и ничто не может остановить его...(В.Береговых)
Сэмпл: http://www.sendspace.com/file/wrbpjo
Качество видео: DVDRip
Формат видео: AVI
Видео: XviD, 704x304 (2.35:1), 23.976 fps, 2026 kbps avg, 0.395 bit/pixel
Аудио: AC3, 48.0 KHz, 224 Kbps, 2 channels
Релиз форума Tavernaclub
MediaInfo
General
Complete name : C:\Правосудие якудзы\Правосудие якудзы.avi
Format : AVI
Format/Info : Audio Video Interleave
File size : 1.35 GiB
Duration : 1h 25mn
Overall bit rate : 2 259 Kbps
Writing application : VirtualDubMod 1.5.10.2 (build 2540/release)
Writing library : VirtualDubMod build 2540/release
Video
ID : 0
Format : MPEG-4 Visual
Format profile : AdvancedSimple@L5
Format settings, BVOP : Yes
Format settings, QPel : No
Format settings, GMC : No warppoints
Format settings, Matrix : Custom
Codec ID : XVID
Codec ID/Hint : XviD
Duration : 1h 25mn
Bit rate : 2 026 Kbps
Width : 704 pixels
Height : 304 pixels
Display aspect ratio : 2.35:1
Frame rate : 23.976 fps
Resolution : 24 bits
Colorimetry : 4:2:0
Scan type : Progressive
Bits/(Pixel*Frame) : 0.395
Stream size : 1.21 GiB (90%)
Writing library : XviD 1.2.1 (UTC 2008-12-04)
Audio
ID : 1
Format : AC-3
Format/Info : Audio Coding 3
Codec ID : 2000
Duration : 1h 25mn
Bit rate mode : Constant
Bit rate : 224 Kbps
Channel(s) : 2 channels
Channel positions : L R
Sampling rate : 48.0 KHz
Stream size : 137 MiB (10%)
Alignment : Split accross interleaves
Interleave, duration : 42 ms (1.00 video frame)
Interleave, preload duration : 500 ms
Скриншот c названием фильма Скриншоты
Скачать

Скачать торрент! Правосудие якудзы: эротический кодекс чести / Yakuza Justice: Erotic Code of Honor / Yakuza Goddess - Lust and Honor (Тацуми Кумаширо / Tatsumi Kumashiro) [1973, Япония, боевик, драма, эротика, DVDRip] VO (Виктор Береговых)

Как скачивать? · Что такое торрент? · Рейтинг и ограничения

Сайт не распространяет и не хранит электронные версии произведений, а лишь предоставляет доступ к создаваемому пользователями каталогу ссылок на торрент-файлы, которые содержат только списки хеш-сумм

[Профиль] [ЛС]
Показать сообщения:    
Ответить на тему

Текущее время: Сегодня 22:59

Часовой пояс: GMT + 4



Вы не можете начинать темы
Вы не можете отвечать на сообщения
Вы не можете редактировать свои сообщения
Вы не можете удалять свои сообщения
Вы не можете голосовать в опросах
Вы не можете прикреплять файлы к сообщениям
Вы не можете скачивать файлы