Санпей - рыбачок / Sanpei the Fisher Boy (Ёдзиро Такита / Yojiro Takita) [2009, Япония, Семейный, рыбалка, DVDRip] VO D.I.M.

Ответить на тему
 
Автор Сообщение

user ®

Стаж: 11 лет

Сообщений: 15151

Пост Пост: #1 от 05-Май-2014 20:35

[Цитировать]

Санпей - рыбачок / Sanpei the Fisher Boy
Страна: Япония
Жанр: Семейный, рыбалка
Год выпуска: 2009
Продолжительность: 1:58:18
Перевод: Одноголосый закадровый D.I.M.
Cубтитры: нет
Режиссер: Ёдзиро Такита / Yojiro Takita
В ролях: Кента Суга / Kenta Suga
Такаси Цукамото / Takashi Tsukamoto
Ю Касии / Yu Kashii
Цунехито Ватасе / Tsunehiko Watase
Описание: Мальчишка Санпей живёт со своим дедушкой
в деревушке в префектуре Акита.
Они оба обожают рыбалку и являются мастерами своего дела.
Сестра Санпея переехала в Токио, когда погиб их отец
и винит в этом рыбалку. Она считает это занятие пустой тратой времени.
Гёшин, мастер по ловле басса, живёт в США и переживает душевный
кризис и приезжает в эту деревушку, чтобы снова обрести радость от рыбалки.
Все вместе они отправляются в долину Ёнаки, чтобы поймать
легендарного огроменного гольца...
Смотрим фильм до самого конца! На титрах не выключаем!
Сэмпл: http://multi-up.com/971811
Качество видео: DVDRip
Формат видео: AVI
Видео: 720*416(16:9), 23,976 fps, MPEG-4 Visual (XviD) ~ 1518 kbps avg, 0.211 bit/pixel
Аудио: MPEG Audio Layer 3, 48000Hz, stereo, 128kbps
MediaInfo
Общее
Полное имя : D:\TORENT\РАЗДАЧИ (РИПЫ)\SANPEI.avi
Формат : AVI
Формат/Информация : Audio Video Interleave
Размер файла : 1,37 Гбайт
Продолжительность : 1 ч. 58 м.
Общий поток : 1656 Кбит/сек
Программа кодирования : VirtualDubModRus 1.5.10.2 (build 2542/release)
Библиотека кодирования : VirtualDubMod build 2542/release
Видео
Идентификатор : 0
Формат : MPEG-4 Visual
Профиль формата : Advanced Simple@L5
Параметр BVOP формата : 1
Параметр QPel формата : Нет
Параметр GMC формата : Без точки перехода
Параметр матрицы формата : Выборочная
Идентификатор кодека : XVID
Идентификатор кодека/Подсказка : XviD
Продолжительность : 1 ч. 58 м.
Битрейт : 1518 Кбит/сек
Ширина : 720 пикс.
Высота : 416 пикс.
Соотношение сторон : 16:9
Частота кадров : 23,976 кадр/сек
Цветовое пространство : YUV
Подвыборка цветности : 4:2:0
Битовая глубина : 8 бит
Тип развёртки : Прогрессивная
Метод сжатия : С потерями
Бит/(Пиксели*Кадры) : 0.211
Размер потока : 1,25 Гбайт (92%)
Библиотека кодирования : XviD 63
Аудио
Идентификатор : 1
Формат : MPEG Audio
Версия формата : Version 1
Профиль формата : Layer 3
Режим : Joint stereo
Расширение режима : MS Stereo
Идентификатор кодека : 55
Идентификатор кодека/Подсказка : MP3
Продолжительность : 1 ч. 58 м.
Вид битрейта : Постоянный
Битрейт : 128 Кбит/сек
Канал(ы) : 2 канала(ов)
Частота : 48,0 КГц
Метод сжатия : С потерями
Размер потока : 108 Мбайт (8%)
Выравнивание : Соединение по промежуткам
Продолжительность промежутка : 42 мс. (1,00 видеокадр)
Время предзагрузки промежутка : 504 ms
Язык : Russian
Скриншот c названием фильма Скриншоты
Скачать

Скачать торрент! Санпей - рыбачок / Sanpei the Fisher Boy (Ёдзиро Такита / Yojiro Takita) [2009, Япония, Семейный, рыбалка, DVDRip] VO D.I.M.

Как скачивать? · Что такое торрент? · Рейтинг и ограничения

Сайт не распространяет и не хранит электронные версии произведений, а лишь предоставляет доступ к создаваемому пользователями каталогу ссылок на торрент-файлы, которые содержат только списки хеш-сумм

[Профиль] [ЛС]
Показать сообщения:    
Ответить на тему

Текущее время: Сегодня 19:47

Часовой пояс: GMT + 4



Вы не можете начинать темы
Вы не можете отвечать на сообщения
Вы не можете редактировать свои сообщения
Вы не можете удалять свои сообщения
Вы не можете голосовать в опросах
Вы не можете прикреплять файлы к сообщениям
Вы не можете скачивать файлы