Выстрел / Dishkiyaoon (Санамджит Сингх Тальвар / Sanamjit Singh Talwar) [2014, Индия, экшн, WEB-DLRip] Sub Rus

Ответить на тему
 
Автор Сообщение

user ®

Стаж: 12 лет

Сообщений: 15124

Пост Пост: #1 от 05-Май-2014 14:15

[Цитировать]

Выстрел / Dishkiyaoon
Страна: Индия
Жанр: боевик,триллер
Год выпуска: 2014
Продолжительность: 01:58:43
Перевод: Субтитры
Cубтитры: русские
Оригинальная аудиодорожка: хинди
Режиссер: Санамджит Сингх Тальвар / Sanamjit Singh Talwar
В ролях: Харман Баведжа,Айеша Кханна,Санни Деол,Адитья Панчоли,Прашант Нараянан,Ананд Тивари.
Описание: История из жизни бандитов.Как жить,выживать,бороться и побеждать.А иногда и проигрывать....
Сэмпл: http://multi-up.com/971717
Качество видео: WEB-DLRip
Формат видео: AVI
Видео: XviD MPEG-4, 720x304, 24.000 fps, 1 559 Kbps
Аудио: AC-3, 44.1 KHz, 192 Kbps, 2 ch
Формат субтитров: softsub (SRT)
MediaInfo
Format : AVI
Format/Info : Audio Video Interleave
File size : 1.46 GiB
Duration : 1h 58mn
Overall bit rate : 1 758 Kbps
Video
ID : 0
Format : MPEG-4 Visual
Format profile : Advanced Simple@L5
Format settings, BVOP : 2
Format settings, QPel : No
Format settings, GMC : No warppoints
Format settings, Matrix : Default (H.263)
Codec ID : XVID
Codec ID/Hint : XviD
Duration : 1h 58mn
Bit rate : 1 559 Kbps
Width : 720 pixels
Height : 304 pixels
Display aspect ratio : 2.35:1
Frame rate : 24.000 fps
Color space : YUV
Chroma subsampling : 4:2:0
Bit depth : 8 bits
Scan type : Progressive
Compression mode : Lossy
Bits/(Pixel*Frame) : 0.297
Stream size : 1.29 GiB (89%)
Writing library : XviD 1.2.1 (UTC 2008-12-04)
Audio
ID : 1
Format : AC-3
Format/Info : Audio Coding 3
Mode extension : CM (complete main)
Format settings, Endianness : Big
Codec ID : 2000
Duration : 1h 58mn
Bit rate mode : Constant
Bit rate : 192 Kbps
Channel(s) : 2 channels
Channel positions : Front: L R
Sampling rate : 44.1 KHz
Bit depth : 16 bits
Compression mode : Lossy
Stream size : 163 MiB (11%)
Alignment : Aligned on interleaves
Interleave, duration : 70 ms (1.67 video frames)
Interleave, preload duration : 208 ms
Title : Dishkiyaoon(2014)
Скриншот c названием фильма Скриншоты Пример субтитров
133
00:10:45,958 --> 00:10:47,833
И да,он был левшой.
134
00:10:48,333 --> 00:10:50,666
Его имя старались упомянуть в каждом отчете.
135
00:10:51,166 --> 00:10:52,166
Гудджар спрашивает как идет бизнес,Тони.
136
00:10:52,666 --> 00:10:55,250
Как бизнес,Тони?
137
00:10:55,750 --> 00:10:57,625
Бизнес расширился,Гудджар.
138
00:10:58,125 --> 00:11:00,500
Там должна быть моя доля.
139
00:11:01,000 --> 00:11:03,041
Есть,согласен.
140
00:11:03,541 --> 00:11:05,958
В этот раз ладно,
141
00:11:06,458 --> 00:11:08,208
2727
142
00:11:08,708 --> 00:11:12,208
В следующий раз Гудджар решит увеличить ли долю.
143
00:11:12,708 --> 00:11:14,583
Правильно?
144
00:11:15,083 --> 00:11:16,583
Спасибо.
145
00:11:21,166 --> 00:11:22,375
Бизнес расширился для всех,Тони,
146
00:11:22,875 --> 00:11:25,125
Поэтому все должны получить долю побольше.
147
00:11:25,625 --> 00:11:30,000
Ты хорошо говоришь, хорошо считаешь,
148
00:11:31,500 --> 00:11:35,208
Ты хороший парень.
149
00:11:35,708 --> 00:11:36,833
У меня же прическа,
150
00:11:37,333 --> 00:11:39,500
Пожалуйста, не делайте так.
151
00:11:42,000 --> 00:11:44,750
На вы!
152
00:11:46,250 --> 00:11:47,750
Видишь,он меня уважает.
153
00:11:48,250 --> 00:11:49,958
Он не наш личный мальчик,Тони,
Скачать

Скачать торрент! Выстрел / Dishkiyaoon (Санамджит Сингх Тальвар / Sanamjit Singh Talwar) [2014, Индия, экшн, WEB-DLRip] Sub Rus

Как скачивать? · Что такое торрент? · Рейтинг и ограничения

Сайт не распространяет и не хранит электронные версии произведений, а лишь предоставляет доступ к создаваемому пользователями каталогу ссылок на торрент-файлы, которые содержат только списки хеш-сумм

[Профиль] [ЛС]

Soniya_55

Стаж: 6 лет 9 месяцев

Сообщений: 1

Пост Пост: #2 от 29-Июл-2014 20:57 (спустя 2 месяца 24 дня)

[Цитировать]

Давно хочу посмотреть и скачать этот фильм.
Вeрнитесь, пожалуйста, на раздачу.
[Профиль] [ЛС]
Показать сообщения:    
Ответить на тему

Текущее время: Сегодня 21:48

Часовой пояс: GMT + 4



Вы не можете начинать темы
Вы не можете отвечать на сообщения
Вы не можете редактировать свои сообщения
Вы не можете удалять свои сообщения
Вы не можете голосовать в опросах
Вы не можете прикреплять файлы к сообщениям
Вы не можете скачивать файлы