Я, Франкенштейн / I, Frankenstein (Стюарт Битти / Stuart Beattie) [2014, США, Австралия, фэнтези, боевик, приключения, BDRip-AVC [USA Transfer]] Dub (BD RUS) + Original (Eng) + Subs

Ответить на тему
 
Автор Сообщение

user ®

Стаж: 7 лет 7 месяцев

Сообщений: 20008

Пост Пост: #1 от 05-Май-2014 14:15

[Цитировать]

Я, Франкенштейн / I, Frankenstein
«In the battle between good and evil, an immortal holds the key»
- Страна: США, Австралия | Hopscotch Features, Lakeshore Entertainment, Sidney Kimmel Entertainment
Жанр: фэнтези, боевик, приключения
Год выпуска: 2014
Продолжительность: 01:32:24 час.
Перевод: Профессиональный (полное дублирование) - BD RUS
Субтитры: Русские, английские (Full + SDH)
Оригинальная аудиодорожка: Английская
Режиссер: Стюарт Битти / Stuart Beattie
В ролях: Аарон Экхарт, Ивонн Страховски, Миранда Отто, Билл Найи, Джай Кортни, Сократис Отто, Аден Янг, Кэйтлин Стэйси, Махеш Джаду, Стив Музакис
Описание: Он — монстр. Он — двухсотлетний плод безумной фантазии своего создателя. Он — легенда. Мир, в котором он живет, населен древними горгульями и бессмертными демонами, которые сражаются за обладание человечеством. Величественные соборы скрывают огромные арсеналы, за дверьми научных лабораторий проводятся эксперименты по воскрешению мертвых. Война двух кланов могущественных существ достигает своего пика. И только он, Адам, монстр Франкенштейна, в силах ее остановить.

Качество видео: BDRip-AVC [USA Transfer] | исх. I.Frankenstein.2014.1080p.2D+3D.BluRay.AVC.DTS-HD.MA.5.1-PublicHD
Формат видео: MKV
Релиз от RG MATROSKA
Автор рипа zOJIOtOi
Видео: 1152x480p (2.40:1), 23,976 fps, H.264 ~4 316 kbps avg, 0.318 bit/pixel
Аудио #1: 48 kHz, AC3, 3/2 (L,C,R,l,r) + LFE ch, ~448.00 kbps avg | Профессиональный (полное дублирование) - BD RUS
Аудио #2: 48 kHz, AC3, 3/2 (L,C,R,l,r) + LFE ch, ~448.00 kbps avg | Оригинал (английский)
Формат субтитров: softsub (SRT)
MediaInfo | log x264
log x264
avs [info]: 1152x480p 1:1 @ 2997/125 fps (cfr)
x264 [info]: using SAR=1/1
x264 [info]: using cpu capabilities: MMX2 SSE2Fast SSSE3 SSE4.2 AVX
x264 [info]: profile High, level 4.1
x264 [info]: frame I:1316 Avg QP:16.34 size: 90114
x264 [info]: frame P:27544 Avg QP:18.21 size: 40221
x264 [info]: frame B:104057 Avg QP:19.88 size: 16956
x264 [info]: consecutive B-frames: 2.2% 2.2% 6.4% 19.1% 18.4% 34.4% 9.7% 1.3% 1.1% 0.8% 1.7% 1.8% 0.3% 0.4% 0.3%
x264 [info]: mb I I16..4: 5.6% 79.9% 14.5%
x264 [info]: mb P I16..4: 0.8% 17.8% 1.6% P16..4: 24.3% 30.3% 15.8% 2.5% 0.2% skip: 6.7%
x264 [info]: mb B I16..4: 0.1% 2.3% 0.2% B16..8: 32.8% 22.2% 5.9% direct: 8.0% skip:28.4% L0:44.9% L1:41.4% BI:13.7%
x264 [info]: 8x8 transform intra:86.9% inter:57.6%
x264 [info]: coded y,uvDC,uvAC intra: 93.2% 92.2% 79.6% inter: 38.1% 32.4% 16.5%
x264 [info]: i16 v,h,dc,p: 53% 10% 6% 31%
x264 [info]: i8 v,h,dc,ddl,ddr,vr,hd,vl,hu: 8% 7% 8% 10% 14% 14% 13% 12% 13%
x264 [info]: i4 v,h,dc,ddl,ddr,vr,hd,vl,hu: 9% 7% 5% 9% 16% 15% 14% 11% 13%
x264 [info]: i8c dc,h,v,p: 51% 16% 14% 19%
x264 [info]: Weighted P-Frames: Y:5.7% UV:3.2%
x264 [info]: ref P L0: 43.6% 11.8% 18.1% 6.4% 5.5% 3.5% 3.3% 1.7% 1.7% 1.2% 1.2% 0.9% 1.0% 0.1% 0.0%
x264 [info]: ref B L0: 65.7% 13.5% 6.9% 3.9% 2.8% 2.3% 1.6% 1.1% 0.8% 0.8% 0.4% 0.2%
x264 [info]: ref B L1: 91.8% 8.2%
x264 [info]: kb/s:4315.92
x264 [total]: encoded 132917 frames, 2.54 fps, 4315.92 kb/s
Общее
Уникальный идентификатор : 210154911945023796074073263890861208446 (0x9E1A5D212D706055A5C31A39190D337E)
Полное имя : D:\\my rips\\I,Frankenstein.2014.BDRip-AVC.US.Transfer.Rus.Eng.Subs.by.zOJIOtOi.mkv
Формат : Matroska
Версия формата : Version 4 / Version 2
Размер файла : 3,37 Гбайт
Продолжительность : 1 ч. 32 м.
Общий поток : 5214 Кбит/сек
Дата кодирования : UTC 2014-05-05 02:44:47
Программа кодирования : mkvmerge v6.1.0 (\'Old Devil\') built on Mar 4 2013 09:10:42
Библиотека кодирования : libebml v1.3.0 + libmatroska v1.4.0
Видео
Идентификатор : 1
Формат : AVC
Формат/Информация : Advanced Video Codec
Профиль формата : High@L4.1
Параметр CABAC формата : Да
Параметр ReFrames формата : 13 кадров
Идентификатор кодека : V_MPEG4/ISO/AVC
Продолжительность : 1 ч. 32 м.
Битрейт : 4214 Кбит/сек
Ширина : 1152 пикселя
Высота : 480 пикселей
Соотношение сторон : 2,40:1
Режим частоты кадров : Постоянный
Частота кадров : 23,976 кадра/сек
Цветовое пространство : YUV
Субдискретизация насыщенности : 4:2:0
Битовая глубина : 8 бит
Тип развёртки : Прогрессивная
Бит/(Пиксели*Кадры) : 0.318
Размер потока : 2,72 Гбайт (81%)
Заголовок : I,Frankenstein.2014.BDRip-AVC.US.Transfer.by.zOJIOtOi
Библиотека кодирования : x264 core 130 r2273 b3065e6
Настройки программы : cabac=1 / ref=13 / deblock=1:-3:-3 / analyse=0x3:0x133 / me=umh / subme=11 / psy=1 / psy_rd=1.00:0.00 / mixed_ref=1 / me_range=48 / chroma_me=1 / trellis=2 / 8x8dct=1 / cqm=0 / deadzone=21,11 / fast_pskip=1 / chroma_qp_offset=-2 / threads=6 / lookahead_threads=1 / sliced_threads=0 / nr=0 / decimate=1 / interlaced=0 / bluray_compat=0 / constrained_intra=0 / bframes=14 / b_pyramid=2 / b_adapt=2 / b_bias=0 / direct=1 / weightb=1 / open_gop=0 / weightp=2 / keyint=240 / keyint_min=23 / scenecut=40 / intra_refresh=0 / rc_lookahead=60 / rc=crf / mbtree=0 / crf=18.0 / qcomp=0.70 / qpmin=0 / qpmax=69 / qpstep=4 / vbv_maxrate=50000 / vbv_bufsize=62500 / crf_max=0.0 / nal_hrd=none / ip_ratio=1.40 / pb_ratio=1.25 / aq=1:1.00
Язык : English
Default : Да
Forced : Нет
Аудио #1
Идентификатор : 2
Формат : AC-3
Формат/Информация : Audio Coding 3
Расширение режима : CM (complete main)
Параметр Endianness формата : Big
Идентификатор кодека : A_AC3
Продолжительность : 1 ч. 32 м.
Вид битрейта : Постоянный
Битрейт : 448 Кбит/сек
Каналы : 6 каналов
Расположение каналов : Front: L C R, Side: L R, LFE
Частота : 48,0 КГц
Битовая глубина : 16 бит
Метод сжатия : С потерями
Размер потока : 296 Мбайт (9%)
Заголовок : Профессиональный (полное дублирование) - BD RUS | DD 5.1 @ 448 kbps
Язык : Russian
Default : Да
Forced : Нет
Аудио #2
Идентификатор : 3
Формат : AC-3
Формат/Информация : Audio Coding 3
Расширение режима : CM (complete main)
Параметр Endianness формата : Big
Идентификатор кодека : A_AC3
Продолжительность : 1 ч. 32 м.
Вид битрейта : Постоянный
Битрейт : 448 Кбит/сек
Каналы : 6 каналов
Расположение каналов : Front: L C R, Side: L R, LFE
Частота : 48,0 КГц
Битовая глубина : 16 бит
Метод сжатия : С потерями
Размер потока : 296 Мбайт (9%)
Заголовок : Оригинал (английский)| DD 5.1 @ 448 kbps
Язык : English
Default : Нет
Forced : Нет
Текст #1
Идентификатор : 4
Формат : UTF-8
Идентификатор кодека : S_TEXT/UTF8
Идентификатор кодека/Информация : UTF-8 Plain Text
Заголовок : SRT
Язык : Russian
Default : Нет
Forced : Нет
Текст #2
Идентификатор : 5
Формат : UTF-8
Идентификатор кодека : S_TEXT/UTF8
Идентификатор кодека/Информация : UTF-8 Plain Text
Заголовок : Full
Язык : English
Default : Нет
Forced : Нет
Текст #3
Идентификатор : 6
Формат : UTF-8
Идентификатор кодека : S_TEXT/UTF8
Идентификатор кодека/Информация : UTF-8 Plain Text
Заголовок : SDH
Язык : English
Default : Нет
Forced : Нет
Меню
00:02:28.857 : en:(01)00:02:28:857
00:04:56.421 : en:(02)00:04:56:421
00:09:19.767 : en:(03)00:09:19:767
00:12:02.471 : en:(04)00:12:02:471
00:17:39.725 : en:(05)00:17:39:725
00:21:26.994 : en:(06)00:21:26:994
00:24:58.497 : en:(07)00:24:58:497
00:29:42.614 : en:(08)00:29:42:614
00:33:49.569 : en:(09)00:33:49:569
00:37:56.274 : en:(10)00:37:56:274
00:43:54.632 : en:(11)00:43:54:632
00:48:23.233 : en:(12)00:48:23:233
00:52:29.187 : en:(13)00:52:29:187
00:56:04.736 : en:(14)00:56:04:736
00:59:56.301 : en:(15)00:59:56:301
01:06:15.513 : en:(16)01:06:15:513
01:08:58.467 : en:(17)01:08:58:467
01:12:59.333 : en:(18)01:12:59:333
01:16:24.538 : en:(19)01:16:24:538
01:20:22.859 : en:(20)01:20:22:859
01:22:00.665 : en:(21)01:22:00:665
01:32:23.538 : en:(22)01:32:23:538
Source vs Rip | rip by holoff [RUS Transfer] vs rip by zOJIOtOi [USA Transfer]
-----------------------------------------------------------source-----------------------------------------------------------

-----------------------------------------------------------rip by zOJIOtOi-----------------------------------------------------------
-http://screenshotcomparison.com/comparison/73340/picture:0-http://screenshotcomparison.com/comparison/73343
Скриншот c названием фильма Скриншоты
Скачать

Скачать торрент!

Как скачивать? · Что такое торрент? · Рейтинг и ограничения

Сайт не распространяет и не хранит электронные версии произведений, а лишь предоставляет доступ к создаваемому пользователями каталогу ссылок на торрент-файлы, которые содержат только списки хеш-сумм

[Профиль] [ЛС]
Показать сообщения:    
Ответить на тему

Текущее время: Сегодня 20:23

Часовой пояс: GMT + 4



Вы не можете начинать темы
Вы не можете отвечать на сообщения
Вы не можете редактировать свои сообщения
Вы не можете удалять свои сообщения
Вы не можете голосовать в опросах
Вы не можете прикреплять файлы к сообщениям
Вы не можете скачивать файлы