Контрабандист / Smuggler / Sumagura: Omae no mirai o hakobe (Кацухито Исий / Katsuhito Ishii) [2011, Япония, драма, HDRip] VO [den904]

Ответить на тему
 
Автор Сообщение

user ®

Стаж: 11 лет

Сообщений: 15151

Пост Пост: #1 от 03-Май-2014 21:05

[Цитировать]

Контрабандист / Smuggler / Sumagura: Omae no mirai o hakobe- -Страна: Япония
Жанр: драма
Год выпуска: 2011
Продолжительность: 01:54:37-Перевод: Одноголосый закадровый [den904] Перевод: [akira9]-Cубтитры: нет
Оригинальная аудиодорожка: нет
Режиссер: Кацухито Исий / Katsuhito Ishii
В ролях: Сатоси Цумабуки, Масатоси Нагасэ, Ясуко Мацуюки, Хикари Мицушима, Цуёси Абе, Масанобу Андо, Тацуя Гасюин, Хитоси Киёкава, Фумиё Кохината, Шота Мацуда
Описание: Рёсуке Кинута актер неудачник впавший в долги. Он устраивается перевозчиком трупов, которые надо утилизировать после якудза-разборок. Однажды чистильщикам поручают перевести опасного убийцу по прозвищу Позвоночник. Но в самый неожиданный момент легендарный убийца сбегает..
Сэмпл: http://multi-up.com/971404
Качество видео: HDRip
Формат видео: AVI
Видео: MPEG-4 Visual at 1290 Кбит/сек; 704 x 400 (1.760) at 23.976 fps
Аудио: AC-3 at 448 Кбит/сек; 6 каналов, 48,0 КГц
Автор рипа :
MediaInfo
Общее
Полное имя : D:\Фильмы\Азиатские\Контрабандист\Smuggler.2011.HDRip.XviD.1400MB. rip by [Assassin's Creed].avi
Формат : AVI
Формат/Информация : Audio Video Interleave
Размер файла : 1,40 Гбайт
Продолжительность : 1 ч. 54 м.
Общий поток : 1747 Кбит/сек
Программа кодирования : VirtualDubMod 1.5.10.2 (build 2540/release)
Библиотека кодирования : VirtualDubMod build 2540/release
Видео
Идентификатор : 0
Формат : MPEG-4 Visual
Профиль формата : Advanced Simple@L5
Параметр BVOP формата : 1
Параметр QPel формата : Нет
Параметр GMC формата : Без точки перехода
Параметр матрицы формата : Default (MPEG)
Идентификатор кодека : XVID
Идентификатор кодека/Подсказка : XviD
Продолжительность : 1 ч. 54 м.
Битрейт : 1290 Кбит/сек
Ширина : 704 пикселя
Высота : 400 пикселей
Соотношение сторон : 16:9
Частота кадров : 23,976 кадра/сек
Цветовое пространство : YUV
Субдискретизация насыщенности : 4:2:0
Битовая глубина : 8 бит
Тип развёртки : Прогрессивная
Метод сжатия : С потерями
Бит/(Пиксели*Кадры) : 0.191
Размер потока : 1,03 Гбайт (74%)
Библиотека кодирования : XviD 1.2.1 (UTC 2008-12-04)
Аудио
Идентификатор : 1
Формат : AC-3
Формат/Информация : Audio Coding 3
Расширение режима : CM (complete main)
Параметр Endianness формата : Big
Идентификатор кодека : 2000
Продолжительность : 1 ч. 54 м.
Вид битрейта : Постоянный
Битрейт : 448 Кбит/сек
Каналы : 6 каналов
Расположение каналов : Front: L C R, Side: L R, LFE
Частота : 48,0 КГц
Битовая глубина : 16 бит
Метод сжатия : С потерями
Размер потока : 367 Мбайт (26%)
Выравнивание : Разделение по промежуткам
Продолжительность промежутка : 42 мс. (1,00 видеокадр)
Время предзагрузки промежутка : 500 мс.
Скриншот c названием фильма Скриншоты
Скачать

Скачать торрент! Контрабандист / Smuggler / Sumagura: Omae no mirai o hakobe (Кацухито Исий / Katsuhito Ishii) [2011, Япония, драма, HDRip] VO [den904]

Как скачивать? · Что такое торрент? · Рейтинг и ограничения

Сайт не распространяет и не хранит электронные версии произведений, а лишь предоставляет доступ к создаваемому пользователями каталогу ссылок на торрент-файлы, которые содержат только списки хеш-сумм

[Профиль] [ЛС]
Показать сообщения:    
Ответить на тему

Текущее время: Сегодня 12:36

Часовой пояс: GMT + 4



Вы не можете начинать темы
Вы не можете отвечать на сообщения
Вы не можете редактировать свои сообщения
Вы не можете удалять свои сообщения
Вы не можете голосовать в опросах
Вы не можете прикреплять файлы к сообщениям
Вы не можете скачивать файлы