Темный мир (Антон Мегердичев) [2010, фэнтези, триллер, HDRip]

Ответить на тему
 
Автор Сообщение

user ®

Стаж: 7 лет 7 месяцев

Сообщений: 20008

Пост Пост: #1 от 03-Май-2014 21:05

[Цитировать]

Темный мир
Жанр: фэнтези, триллер
Год выпуска: 2010
Продолжительность: 01:45:24
Режиссер: Антон Мегердичев
В ролях: Светлана Иванова, Иван Жидков, Елена Панова, Сергей Угрюмов, Владимир Носик, Илья Алексеев, Мария Кожевникова, Ксения Радченко, Захар Хунгуреев, Татьяна Кузнецова
Описание: Группа студентов отправляется в экспедицию по глухим северным деревням. В одной из них главная героиня — девушка, увлеченная мистикой и романтикой загробного мира — находит древний могильник, а в нем — магический щит. Дотронувшись до щита, она пробуждает гнев духов прошлого и приобретает сверхчеловеческие способности. Теперь студентам придется вступить в противостояние с силами зла.

Сэмпл: http://www.sendspace.com/file/v0ys6t
Качество видео: HDRip
Формат видео: AVI
Видео: XviD, 720x400 (16:9), 23.976 fps, 1487 Kbps
Аудио: AC-3, 48.0 kHz, 384 Kbps, 5.1 ch, CBR
MediaInfo
General
Complete name                            : Temnyy.mir.2010.O.HDRip.avi
Format                                   : AVI
Format/Info                              : Audio Video Interleave
File size                                : 1.38 GiB
Duration                                 : 1h 45mn
Overall bit rate                         : 1 880 Kbps
Writing application                      : VirtualDubMod 1.5.10.3 | www.virtualdub-fr.org || (build 2550/release)
Writing library                          : VirtualDubMod build 2550/release
Video
ID                                       : 0
Format                                   : MPEG-4 Visual
Format profile                           : Advanced Simple@L5
Format settings, BVOP                    : 2
Format settings, QPel                    : No
Format settings, GMC                     : No warppoints
Format settings, Matrix                  : Default (H.263)
Codec ID                                 : XVID
Codec ID/Hint                            : XviD
Duration                                 : 1h 45mn
Bit rate                                 : 1 487 Kbps
Width                                    : 720 pixels
Height                                   : 400 pixels
Display aspect ratio                     : 16:9
Frame rate                               : 23.976 fps
Color space                              : YUV
Chroma subsampling                       : 4:2:0
Bit depth                                : 8 bits
Scan type                                : Progressive
Compression mode                         : Lossy
Bits/(Pixel*Frame)                       : 0.215
Stream size                              : 1.09 GiB (79%)
Writing library                          : XviD 1.2.1 (UTC 2008-12-04)
Audio
ID                                       : 1
Format                                   : AC-3
Format/Info                              : Audio Coding 3
Mode extension                           : CM (complete main)
Format settings, Endianness              : Big
Codec ID                                 : 2000
Duration                                 : 1h 45mn
Bit rate mode                            : Constant
Bit rate                                 : 384 Kbps
Channel(s)                               : 6 channels
Channel positions                        : Front: L C R, Side: L R, LFE
Sampling rate                            : 48.0 KHz
Bit depth                                : 16 bits
Compression mode                         : Lossy
Stream size                              : 290 MiB (20%)
Alignment                                : Split accross interleaves
Interleave, duration                     : 42 ms (1.00 video frame)
Interleave, preload duration             : 500 ms
Скриншот c названием фильма Скриншоты
Скачать

Скачать торрент!

Как скачивать? · Что такое торрент? · Рейтинг и ограничения

Сайт не распространяет и не хранит электронные версии произведений, а лишь предоставляет доступ к создаваемому пользователями каталогу ссылок на торрент-файлы, которые содержат только списки хеш-сумм

[Профиль] [ЛС]
Показать сообщения:    
Ответить на тему

Текущее время: Сегодня 00:43

Часовой пояс: GMT + 4



Вы не можете начинать темы
Вы не можете отвечать на сообщения
Вы не можете редактировать свои сообщения
Вы не можете удалять свои сообщения
Вы не можете голосовать в опросах
Вы не можете прикреплять файлы к сообщениям
Вы не можете скачивать файлы