Небо / Амбер / Amber (Джаянт Десаи / Jayant Desai) [1952, Индия, Драма, мелодрама, боевик, триллер, приключения, SATRip] DVO

Ответить на тему
 
Автор Сообщение

user ®

Стаж: 12 лет

Сообщений: 15092

Пост Пост: #1 от 03-Май-2014 17:55

[Цитировать]

Небо / Амбер / Amber
Страна: Индия
Жанр: Драма, мелодрама, боевик, триллер, приключения
Год выпуска: 1952
Продолжительность: 02:20:50
Перевод: Любительский (двухголосый закадровый)
Cубтитры: нет
Режиссер: Джаянт Десаи / Jayant Desai
В ролях: Радж Капур, Наргис, Агха, Бипин Гупта, Рамеш Синха, S.B. Nayampalli, Самсон, Б.М. Вьяс, Тануджа, Куку
Описание: Маленькая бездомная девочка Амбер подобрана Махараджем и растет у него во дворце. 10 лет спустя, она встречает Раджа, и их начинает тянуть друг к другу. Отец Раджа посылает его во дворец , опасаясь за жизнь Махараджа в качестве телохранителя. Радж под видом учителя принцессы прибывает во дворец . Махарадж беспечен, первый министр Дживан и его незаконный сын Джохар, замышляют заговор. Когда Дживан узнает о том , что Амбер послана во дворец с целью убить Махараджа , у него возникает хитрый план.
Доп. информация: Перевел и озвучил vvp13 со своей женой (Спасибо!)
Сэмпл: http://multi-up.com/971330
Качество видео: SATRip
Формат видео: AVI
Видео: XviD build 64, 704x480 (1.47:1), 29.970 fps, 1948 kbps avg
Аудио: MPEG Layer 3, 48 kHz, 2/0 (L,R) ch, 96.00 kbps avg
MediaInfo
General
Complete name : D:\Amber.1952.SATRip.XviD.avi
Format : AVI
Format/Info : Audio Video Interleave
Format profile : OpenDML
File size : 2.02 GiB
Duration : 2h 20mn
Overall bit rate : 2 052 Kbps
Writing application : VirtualDubMod 1.5.10.3 (build 2550/release)
Writing library : VirtualDub build 33848/release
Video
ID : 0
Format : MPEG-4 Visual
Format profile : AdvancedSimple@L5
Format settings, BVOP : Yes
Format settings, QPel : No
Format settings, GMC : No warppoints
Format settings, Matrix : Default (H.263)
Muxing mode : Packed bitstream
Codec ID : XVID
Codec ID/Hint : XviD
Duration : 2h 20mn
Bit rate : 1 941 Kbps
Width : 704 pixels
Height : 480 pixels
Display aspect ratio : 1.467
Frame rate : 29.970 fps
Resolution : 24 bits
Colorimetry : 4:2:0
Scan type : Progressive
Bits/(Pixel*Frame) : 0.192
Stream size : 1.91 GiB (95%)
Writing library : XviD 64
Audio
ID : 1
Format : MPEG Audio
Format version : Version 1
Format profile : Layer 3
Codec ID : 55
Codec ID/Hint : MP3
Duration : 2h 20mn
Bit rate mode : Constant
Bit rate : 96.0 Kbps
Channel(s) : 2 channels
Sampling rate : 48.0 KHz
Resolution : 16 bits
Stream size : 96.7 MiB (5%)
Alignment : Split accross interleaves
Interleave, duration : 33 ms (1.00 video frame)
Interleave, preload duration : 500 ms
Writing library : LAME3.98r
Encoding settings : -m s -V 4 -q 3 -lowpass 15.1 -b 96
Скриншоты
Скачать

Скачать торрент! Небо / Амбер / Amber (Джаянт Десаи / Jayant Desai) [1952, Индия, Драма, мелодрама, боевик, триллер, приключения, SATRip] DVO

Как скачивать? · Что такое торрент? · Рейтинг и ограничения

Сайт не распространяет и не хранит электронные версии произведений, а лишь предоставляет доступ к создаваемому пользователями каталогу ссылок на торрент-файлы, которые содержат только списки хеш-сумм

[Профиль] [ЛС]
Показать сообщения:    
Ответить на тему

Текущее время: Сегодня 16:27

Часовой пояс: GMT + 4



Вы не можете начинать темы
Вы не можете отвечать на сообщения
Вы не можете редактировать свои сообщения
Вы не можете удалять свои сообщения
Вы не можете голосовать в опросах
Вы не можете прикреплять файлы к сообщениям
Вы не можете скачивать файлы