Герой с плаката / Инспектор с афиши / Phata Poster Nikhla Hero (Раджкумар Сантоши / Rajkumar Santoshi) [2013, Индия, Комедия, боевик, DVDRip] MVO (Zee TV)

Ответить на тему
 
Автор Сообщение

user ®

Стаж: 13 лет

Сообщений: 15070

Пост Пост: #1 от 30-Апр-2014 23:05

[Цитировать]

Инспектор с афиши / Phata Poster Nikhla Hero- Страна: Индия
Жанр: Комедия, боевик
Год выпуска: 2013
Продолжительность: 02:21:13-Перевод: Профессиональный (многоголосый закадровый) - Zee TV
Cубтитры: Нет--Режиссер: Раджкумар Сантоши / Rajkumar Santoshi-В ролях: Шахид Капур, Илеана, Падмини Колхапуре, Даршан Джаривала, Тинну Ананд, Рана Юнг Бахадур, Митилеш Чатурведи, Наргис Факхри, Виджай Гупта, Закир Хуссэйн.--Описание: Мать Вишваса Рао хочет в будущем видеть своего сына полицейским. Но у Вишваса на будущее совсем другие планы. Он мечтает стать киногероем.-- | --Качество видео: DVDRip
Исходник: DVD9 R1
Формат видео: AVI-Видео: XviD, 720x304, 1 342 Кбит/с, 23,976 fps,
Аудио: 48 kHz, MP3, 2 ch, 128 Кбит/с-Доп. информация: Канал вещает с легким запинанием звука-Риппер, синхронизация аудио: soso4eg-Сэмпл / Sample-
-
Скриншот с названием
-
Скриншоты
-
MI
General
Complete name : P:\[Релизы]\Geroy.S.Plakata.2013.DVDRip.XviD.[ZeeTV]-soso4eg.avi
Format : AVI
Format/Info : Audio Video Interleave
File size : 1.46 GiB
Duration : 2h 21mn
Overall bit rate : 1 479 Kbps
Movie name : Geroy.S.Plakata.2013.DVDRip.XviD.[ZeeTV]-soso4eg
Director : soso4eg
Writing application : VirtualDubMod 1.5.10.3 | www.virtualdub-fr.org || (build 2550/release)
Copyright : специально для BitTorrent трекер *** (ex torrents.ru)
Comment : пер. ZeeTV
Video
ID : 0
Format : MPEG-4 Visual
Format profile : Advanced Simple@L5
Format settings, BVOP : 1
Format settings, QPel : No
Format settings, GMC : No warppoints
Format settings, Matrix : Default (H.263)
Codec ID : XVID
Codec ID/Hint : XviD
Duration : 2h 21mn
Bit rate : 1 342 Kbps
Width : 720 pixels
Height : 304 pixels
Display aspect ratio : 2.35:1
Frame rate : 23.976 fps
Color space : YUV
Chroma subsampling : 4:2:0
Bit depth : 8 bits
Scan type : Progressive
Compression mode : Lossy
Bits/(Pixel*Frame) : 0.256
Stream size : 1.32 GiB (91%)
Writing library : XviD 1.2.1 (UTC 2008-12-04)
Audio
ID : 1
Format : MPEG Audio
Format version : Version 1
Format profile : Layer 3
Mode : Joint stereo
Mode extension : MS Stereo
Codec ID : 55
Codec ID/Hint : MP3
Duration : 2h 21mn
Bit rate mode : Constant
Bit rate : 128 Kbps
Channel(s) : 2 channels
Sampling rate : 48.0 KHz
Compression mode : Lossy
Stream size : 129 MiB (9%)
Alignment : Aligned on interleaves
Interleave, duration : 42 ms (1.00 video frame)
Interleave, preload duration : 504 ms

-
-
Скачать

Скачать торрент! Герой с плаката / Инспектор с афиши / Phata Poster Nikhla Hero (Раджкумар Сантоши / Rajkumar Santoshi) [2013, Индия, Комедия, боевик, DVDRip] MVO (Zee TV)

Как скачивать? · Что такое торрент? · Рейтинг и ограничения

Сайт не распространяет и не хранит электронные версии произведений, а лишь предоставляет доступ к создаваемому пользователями каталогу ссылок на торрент-файлы, которые содержат только списки хеш-сумм

[Профиль] [ЛС]
Показать сообщения:    
Ответить на тему

Текущее время: Сегодня 16:43

Часовой пояс: GMT + 4



Вы не можете начинать темы
Вы не можете отвечать на сообщения
Вы не можете редактировать свои сообщения
Вы не можете удалять свои сообщения
Вы не можете голосовать в опросах
Вы не можете прикреплять файлы к сообщениям
Вы не можете скачивать файлы