Дыхания нет / Не дыша / No Breathing (Джо Ён Сан / Jo Yong Sun) [2013, Южная Корея, мелодрама, спорт, HDRip] DVO [Kedra & Hydra]

Ответить на тему
 
Автор Сообщение

user ®

Стаж: 13 лет

Сообщений: 15071

Пост Пост: #1 от 29-Апр-2014 11:20

[Цитировать]

Дыхания нет / No Breathing- -Страна: Южная Корея
Жанр: мелодрама, спорт
Год выпуска: 2013
Продолжительность: 01:58:27-Перевод: Любительский (двухголосый закадровый) [Kedra & Hydra]-Cубтитры: русские [на песни]
Оригинальная аудиодорожка: нет
Режиссер: Джо Ён Сан / Jo Yong Sun
В ролях: Ли Чжон Сок, Со Ин Гук, Юри, Аён, Пак Чон Чхоль
Описание: У Сан (Ли Чон Сок) - амбициозный пловец, который всегда стремится быть во всем первым. Вон Иль (Со Ин Гук) - пловец вундеркинд, который прекратил свои тренировки и участия в соревнованиях на некоторое время, а теперь хочет вернуться и побеждать. Мало того, что эти двое становятся соперниками на плавательной дорожке, но они также влюбляются в одну девушку Чон Вон (Квон Ю Ри), начинающего музыканта. Вот так три друга детства проходят этап взросления через конкуренцию, дружбу и любовь…
Качество видео: HDRip
Формат видео: AVI
Видео: MPEG-4 Visual at 1324 Кбит/сек; 704 x 304 (2.316) at 23.976 fps
Аудио: AC-3 at 448 Кбит/сек; 6 каналов, 48,0 КГц
Автор:
MediaInfo
Общее
Полное имя : D:\Фильмы\Азиатские\Не дыша\No Breathing.2013.HDRip.XviD.1400MB. rip by [Assassin's Creed].avi
Формат : AVI
Формат/Информация : Audio Video Interleave
Размер файла : 1,47 Гбайт
Продолжительность : 1 ч. 58 м.
Общий поток : 1782 Кбит/сек
Программа кодирования : VirtualDubMod 1.5.10.3 | www.virtualdub-fr.org || (build 2550/release)
Библиотека кодирования : VirtualDubMod build 2550/release
Видео
Идентификатор : 0
Формат : MPEG-4 Visual
Профиль формата : Advanced Simple@L5
Параметр BVOP формата : 1
Параметр QPel формата : Нет
Параметр GMC формата : Без точки перехода
Параметр матрицы формата : Default (MPEG)
Идентификатор кодека : XVID
Идентификатор кодека/Подсказка : XviD
Продолжительность : 1 ч. 58 м.
Битрейт : 1324 Кбит/сек
Ширина : 704 пикселя
Высота : 304 пикселя
Соотношение сторон : 2,35:1
Частота кадров : 23,976 кадра/сек
Цветовое пространство : YUV
Субдискретизация насыщенности : 4:2:0
Битовая глубина : 8 бит
Тип развёртки : Прогрессивная
Метод сжатия : С потерями
Бит/(Пиксели*Кадры) : 0.258
Размер потока : 1,10 Гбайт (74%)
Библиотека кодирования : XviD 1.2.1 (UTC 2008-12-04)
Аудио
Идентификатор : 1
Формат : AC-3
Формат/Информация : Audio Coding 3
Расширение режима : CM (complete main)
Параметр Endianness формата : Big
Идентификатор кодека : 2000
Продолжительность : 1 ч. 58 м.
Вид битрейта : Постоянный
Битрейт : 448 Кбит/сек
Каналы : 6 каналов
Расположение каналов : Front: L C R, Side: L R, LFE
Частота : 48,0 КГц
Битовая глубина : 16 бит
Метод сжатия : С потерями
Размер потока : 380 Мбайт (25%)
Выравнивание : Разделение по промежуткам
Продолжительность промежутка : 42 мс. (1,00 видеокадр)
Время предзагрузки промежутка : 500 мс.
Скриншот c названием фильма Скриншоты
Скачать

Скачать торрент! Дыхания нет / Не дыша / No Breathing (Джо Ён Сан / Jo Yong Sun) [2013, Южная Корея, мелодрама, спорт, HDRip] DVO [Kedra & Hydra]

Как скачивать? · Что такое торрент? · Рейтинг и ограничения

Сайт не распространяет и не хранит электронные версии произведений, а лишь предоставляет доступ к создаваемому пользователями каталогу ссылок на торрент-файлы, которые содержат только списки хеш-сумм

[Профиль] [ЛС]
Показать сообщения:    
Ответить на тему

Текущее время: Сегодня 10:51

Часовой пояс: GMT + 4



Вы не можете начинать темы
Вы не можете отвечать на сообщения
Вы не можете редактировать свои сообщения
Вы не можете удалять свои сообщения
Вы не можете голосовать в опросах
Вы не можете прикреплять файлы к сообщениям
Вы не можете скачивать файлы