Хва-Йи / Hwayi: Gwimuleul samkin ahyi / A Monster Boy (Jang Joon-Hwan / Чан Чжун Хван) [2013, Южная Корея, боевик, триллер, HDRip] DVO [GREEN TEA]

Ответить на тему
 
Автор Сообщение

user ®

Стаж: 11 лет

Сообщений: 15151

Пост Пост: #1 от 24-Апр-2014 23:40

[Цитировать]

Хва-Йи / Hwayi: Gwimuleul samkin ahyi / A Monster Boy- -Страна: Южная Корея
Жанр: боевик, триллер
Год выпуска: 2013
Продолжительность: 02:05:26-Перевод: Любительский (двухголосый закадровый) [GREEN TEA]-Cубтитры: нет
Оригинальная аудиодорожка: нет
Режиссер: Jang Joon-Hwan / Чан Чжун Хван
В ролях: Ким Юн Сок, Ё Чжин Гу, Чо Чжин Ун, Чон Хён Сон, Seong-gyoon Kim, Hae-jun Park, Чжи-ын Лим, Нам Чжи Хён
Описание: Банда из 5-ти человек во главе с Тэ Сок похищает мальчика по имени Хва-Йи и воспитывает его как своего сына. Мальчик вырос и превратился в настоящего убийцу. Теперь Хва-Йи решает выяснить кто же он на самом деле…
Качество видео: HDRip
Формат видео: AVI
Видео: MPEG-4 Visual at 703 Кбит/сек; 640 x 272 (2.353) at 23.976 fps
Аудио: MPEG Audio at 128 Кбит/сек; 2 канала, 48,0 КГц
Релиз от -

MediaInfo

бщее
Полное имя : D:\Фильмы\Азиатские\Хва-Йи\Hwayi.Gwimuleul samkin ahyi.2013.HDRip.XviD.745MB. rip by [Assassin's Creed].avi
Формат : AVI
Формат/Информация : Audio Video Interleave
Размер файла : 754 Мбайт
Продолжительность : 2 ч. 5 м.
Общий поток : 840 Кбит/сек
Программа кодирования : VirtualDubMod 1.5.10.3 | www.virtualdub-fr.org || (build 2550/release)
Библиотека кодирования : VirtualDubMod build 2550/release
Видео
Идентификатор : 0
Формат : MPEG-4 Visual
Профиль формата : Advanced Simple@L5
Параметр BVOP формата : 2
Параметр QPel формата : Нет
Параметр GMC формата : Без точки перехода
Параметр матрицы формата : Default (MPEG)
Идентификатор кодека : XVID
Идентификатор кодека/Подсказка : XviD
Продолжительность : 2 ч. 5 м.
Битрейт : 703 Кбит/сек
Ширина : 640 пикселей
Высота : 272 пикселя
Соотношение сторон : 2,35:1
Частота кадров : 23,976 кадра/сек
Цветовое пространство : YUV
Субдискретизация насыщенности : 4:2:0
Битовая глубина : 8 бит
Тип развёртки : Прогрессивная
Метод сжатия : С потерями
Бит/(Пиксели*Кадры) : 0.168
Размер потока : 630 Мбайт (84%)
Библиотека кодирования : XviD 1.2.1 (UTC 2008-12-04)
Аудио
Идентификатор : 1
Формат : MPEG Audio
Версия формата : Version 1
Профиль формата : Layer 3
Идентификатор кодека : 55
Идентификатор кодека/Подсказка : MP3
Продолжительность : 2 ч. 5 м.
Вид битрейта : Постоянный
Битрейт : 128 Кбит/сек
Каналы : 2 канала
Частота : 48,0 КГц
Метод сжатия : С потерями
Размер потока : 115 Мбайт (15%)
Выравнивание : Соединение по промежуткам
Продолжительность промежутка : 42 мс. (1,00 видеокадр)
Время предзагрузки промежутка : 504 мс.
Библиотека кодирования : LAME3.99r
Настройки программы : -m s -V 4 -q 2 -lowpass 17 -b 128

Скриншот c названием фильма

Скриншоты

Скачать

Скачать торрент! Хва-Йи / Hwayi: Gwimuleul samkin ahyi / A Monster Boy (Jang Joon-Hwan / Чан Чжун Хван) [2013, Южная Корея, боевик, триллер, HDRip] DVO [GREEN TEA]

Как скачивать? · Что такое торрент? · Рейтинг и ограничения

Сайт не распространяет и не хранит электронные версии произведений, а лишь предоставляет доступ к создаваемому пользователями каталогу ссылок на торрент-файлы, которые содержат только списки хеш-сумм

[Профиль] [ЛС]
Показать сообщения:    
Ответить на тему

Текущее время: Сегодня 16:05

Часовой пояс: GMT + 4



Вы не можете начинать темы
Вы не можете отвечать на сообщения
Вы не можете редактировать свои сообщения
Вы не можете удалять свои сообщения
Вы не можете голосовать в опросах
Вы не можете прикреплять файлы к сообщениям
Вы не можете скачивать файлы