Маленький гигант большого секса (Николай Досталь) [1992, комедия, BDRip-AVC]

Ответить на тему
 
Автор Сообщение

user ®

Стаж: 7 лет 7 месяцев

Сообщений: 20008

Пост Пост: #1 от 24-Апр-2014 20:30

[Цитировать]

Маленький гигант большого секса- Жанр: комедия
Год выпуска: 1992
Продолжительность: 01:21:59-Режиссёр: Николай Досталь-В ролях:
Геннадий Хазанов, Зоя Буряк, Татьяна Чепикова, Оксана Калиберда, Николай Карнаухов, Владимир Кашпур, Александр Берда, Валерий Хромушкин, Ирэна Кокрятская, Галина Кулагина
Описание:
Герой фильма Марат живёт в курортном городе на берегу Чёрного моря, работает фотографом на пляже и в редакции местной газеты. Но знаменит он совсем другим: ни одна женщина не может устоять перед его сексуальным напором. Для Марата любовные игры – дело серьёзное, тогда как зрителя эти похождения заставляют смеяться до слёз…-Сэмпл | Кинопоиск-Формат видео: MKV
Видео: x264 (High@L4.1); 868x660, Display aspect ratio 1.315:1, 23.976 fps, 4500 Kbps
Аудио: Оригинал: AC-3; 16 bit 48 Khz; 5.1 ch 448 Kbps; CBR

MediaInfo


-

x 264 log

avs [info]: 868x660p 1:1 @ 24000/1001 fps (cfr)
x264 [info]: using SAR=1/1
x264 [info]: using cpu capabilities: MMX2 SSE2Fast SSSE3 SSE4.2
x264 [info]: profile High, level 4.1
x264 [info]: frame I:664 Avg QP:14.29 size:108791
x264 [info]: frame P:24795 Avg QP:16.05 size: 53199
x264 [info]: frame B:92503 Avg QP:18.69 size: 14871
x264 [info]: consecutive B-frames: 1.9% 2.3% 8.3% 11.6% 9.5% 64.4% 1.5% 0.3% 0.2% 0.0% 0.0% 0.0% 0.0%
x264 [info]: mb I I16..4: 3.7% 68.4% 27.9%
x264 [info]: mb P I16..4: 0.3% 9.6% 2.7% P16..4: 28.6% 38.1% 19.1% 0.0% 0.0% skip: 1.7%
x264 [info]: mb B I16..4: 0.0% 1.4% 0.5% B16..8: 34.5% 27.7% 6.6% direct: 6.9% skip:22.3% L0:40.6% L1:42.2% BI:17.2%
x264 [info]: 8x8 transform intra:74.2% inter:51.1%
x264 [info]: direct mvs spatial:99.0% temporal:1.0%
x264 [info]: coded y,uvDC,uvAC intra: 90.6% 78.4% 57.5% inter: 36.0% 23.2% 9.7%
x264 [info]: i16 v,h,dc,p: 16% 9% 4% 70%
x264 [info]: i8 v,h,dc,ddl,ddr,vr,hd,vl,hu: 12% 12% 8% 9% 12% 12% 12% 11% 12%
x264 [info]: i4 v,h,dc,ddl,ddr,vr,hd,vl,hu: 30% 21% 5% 5% 9% 8% 8% 6% 8%
x264 [info]: i8c dc,h,v,p: 34% 32% 20% 15%
x264 [info]: Weighted P-Frames: Y:2.6% UV:0.5%
x264 [info]: ref P L0: 39.6% 11.1% 17.2% 6.3% 5.9% 3.7% 3.9% 2.0% 2.3% 1.6% 1.9% 1.4% 1.6% 1.3% 0.2% 0.0%
x264 [info]: ref B L0: 80.5% 8.1% 3.4% 2.0% 1.3% 1.2% 0.9% 0.6% 0.5% 0.5% 0.4% 0.3% 0.2%
x264 [info]: ref B L1: 96.8% 3.2%
x264 [info]: kb/s:4498.99
x264 [total]: encoded 117962 frames, 8.11 fps, 4498.99 kb/s
-General
Unique ID : 254571804553168994361585156909348373876 (0xBF84BF02EFDBF7ECAFB9D71F1CD74574)
Complete name : Маленький гигант большого секса.1992.BDRip.mkv
Format : Matroska
Format version : Version 2
File size : 2.83 GiB
Duration : 1h 21mn
Overall bit rate : 4 949 Kbps
Movie name : «Маленький гигант большого секса»
Encoded date : UTC 2014-04-24 11:52:43
Writing application : mkvmerge v5.8.0 ('No Sleep / Pillow') built on Sep 2 2012 15:37:04
Writing library : libebml v1.2.3 + libmatroska v1.3.0
Comment : BDRip-AVC
Original date released : April 24th 2014
Encoded by : imgeorgest®
Video
ID : 1
Format : AVC
Format/Info : Advanced Video Codec
Format profile : High@L4.1
Format settings, CABAC : Yes
Format settings, ReFrames : 14 frames
Codec ID : V_MPEG4/ISO/AVC
Duration : 1h 22mn
Bit rate : 4 500 Kbps
Width : 868 pixels
Height : 660 pixels
Display aspect ratio : 4:3
Frame rate mode : Constant
Frame rate : 23.976 fps
Color space : YUV
Chroma subsampling : 4:2:0
Bit depth : 8 bits
Scan type : Progressive
Bits/(Pixel*Frame) : 0.328
Stream size : 2.52 GiB (89%)
Title : Маленький гигант большого секса.1992
Writing library : x264 core 130 r2273 b3065e6
Encoding settings : cabac=1 / ref=14 / deblock=1:-3:-3 / analyse=0x3:0x113 / me=umh / subme=11 / psy=1 / psy_rd=0.96:0.00 / mixed_ref=1 / me_range=48 / chroma_me=1 / trellis=2 / 8x8dct=1 / cqm=0 / deadzone=21,11 / fast_pskip=0 / chroma_qp_offset=-2 / threads=12 / lookahead_threads=3 / sliced_threads=0 / nr=0 / decimate=0 / interlaced=0 / bluray_compat=0 / constrained_intra=0 / bframes=12 / b_pyramid=2 / b_adapt=2 / b_bias=0 / direct=3 / weightb=1 / open_gop=0 / weightp=2 / keyint=250 / keyint_min=23 / scenecut=40 / intra_refresh=0 / rc_lookahead=60 / rc=2pass / mbtree=1 / bitrate=4500 / ratetol=1.0 / qcomp=0.70 / qpmin=0 / qpmax=32 / qpstep=4 / cplxblur=20.0 / qblur=0.5 / vbv_maxrate=50000 / vbv_bufsize=62500 / nal_hrd=none / ip_ratio=1.15 / aq=1:0.70
Language : Russian
Default : Yes
Forced : No
Color primaries : BT.709
Transfer characteristics : BT.709
Matrix coefficients : BT.709
Audio
ID : 2
Format : AC-3
Format/Info : Audio Coding 3
Mode extension : CM (complete main)
Format settings, Endianness : Big
Codec ID : A_AC3
Duration : 1h 21mn
Bit rate mode : Constant
Bit rate : 448 Kbps
Channel(s) : 6 channels
Channel positions : Front: L C R, Side: L R, LFE
Sampling rate : 48.0 KHz
Bit depth : 16 bits
Compression mode : Lossy
Stream size : 263 MiB (9%)
Title : Оригинал: AC-3; 16 bit 48 Khz; 5.1 ch 448 Kbps; CBR
Language : Russian
Default : Yes
Forced : No

Скриншот c названием фильма

Скриншоты

vs. source
Скачать

Скачать торрент!

Как скачивать? · Что такое торрент? · Рейтинг и ограничения

Сайт не распространяет и не хранит электронные версии произведений, а лишь предоставляет доступ к создаваемому пользователями каталогу ссылок на торрент-файлы, которые содержат только списки хеш-сумм

[Профиль] [ЛС]
Показать сообщения:    
Ответить на тему

Текущее время: Сегодня 08:06

Часовой пояс: GMT + 4



Вы не можете начинать темы
Вы не можете отвечать на сообщения
Вы не можете редактировать свои сообщения
Вы не можете удалять свои сообщения
Вы не можете голосовать в опросах
Вы не можете прикреплять файлы к сообщениям
Вы не можете скачивать файлы