Полицейская история 2013 / Police Story 2013 / Ging chaat goo si 2013 / Jing cha gu shi (Дин Шэн / Ding Sheng) [2013, Китай, Гонконг, криминал, драма, триллер, боевик, HDRip] DVO (GREEN TEA)

Ответить на тему
 
Автор Сообщение

user ®

Стаж: 11 лет

Сообщений: 15151

Пост Пост: #1 от 21-Апр-2014 22:10

[Цитировать]

Полицейская история 2013 / Police Story 2013 / Ging chaat goo si 2013 / Jing cha gu shi
Страна: Китай, Гонконг
Жанр: криминал, драма, триллер, боевик
Год выпуска: 2013
Продолжительность: 01:50:07
Перевод: Любительский (двухголосый закадровый) | GREEN TEA
Cубтитры: нет
Оригинальная аудиодорожка: нет
Режиссер: Дин Шэн / Ding Sheng
В ролях: Джеки Чан, Лю Е, Тянь Цзин, Вэй На, Юй Жун Гуан, Александр Байли, Макс Хуан, Лью Пэйци, Ивэй Лау, Джеймс Лоджа
Описание: История начинается с того, что посетители паба оказываются взятыми в заложники. Среди посетителей есть офицер полиции Вэнь Чжун и его непослушная дочь Мяомяо. Человек, удерживающий всех в заложниках — владелец паба, который таким образом пытается добиться освобождения из тюрьмы одного преступника…

Сэмпл: http://sendfile.su/970272
Качество видео: HDRip
Формат видео: AVI
Видео: XviD 73, 688x288 (2.40:1), 24.000 fps, 812 Kbps
Аудио: MP3, 48.0 kHz, 128 Kbps, 2 ch, CBR
Релиз от: Scarabey

MediaInfo

General
Complete name                            : Jing.cha.gu.shi.2013.L2.HDRip.avi
Format                                   : AVI
Format/Info                              : Audio Video Interleave
File size                                : 748 MiB
Duration                                 : 1h 50mn
Overall bit rate                         : 950 Kbps
Writing application                      : VirtualDubMod 1.5.10.3 | www.virtualdub-fr.org || (build 2550/release)
Writing library                          : VirtualDubMod build 2550/release
Video
ID                                       : 0
Format                                   : MPEG-4 Visual
Format profile                           : Advanced Simple@L5
Format settings, BVOP                    : 1
Format settings, QPel                    : No
Format settings, GMC                     : No warppoints
Format settings, Matrix                  : Custom
Codec ID                                 : XVID
Codec ID/Hint                            : XviD
Duration                                 : 1h 50mn
Bit rate                                 : 812 Kbps
Width                                    : 688 pixels
Height                                   : 288 pixels
Display aspect ratio                     : 2.40:1
Frame rate                               : 24.000 fps
Color space                              : YUV
Chroma subsampling                       : 4:2:0
Bit depth                                : 8 bits
Scan type                                : Progressive
Compression mode                         : Lossy
Bits/(Pixel*Frame)                       : 0.171
Stream size                              : 640 MiB (86%)
Writing library                          : XviD 73
Audio
ID                                       : 1
Format                                   : MPEG Audio
Format version                           : Version 1
Format profile                           : Layer 3
Codec ID                                 : 55
Codec ID/Hint                            : MP3
Duration                                 : 1h 50mn
Bit rate mode                            : Constant
Bit rate                                 : 128 Kbps
Channel(s)                               : 2 channels
Sampling rate                            : 48.0 KHz
Compression mode                         : Lossy
Stream size                              : 101 MiB (13%)
Alignment                                : Aligned on interleaves
Interleave, duration                     : 42 ms (1.00 video frame)
Interleave, preload duration             : 504 ms
Writing library                          : LAME3.99r
Encoding settings                        : -m s -V 4 -q 2 -lowpass 17 -b 128

Скриншот c названием фильма

Скриншоты

Скачать

Скачать торрент! Полицейская история 2013 / Police Story 2013 / Ging chaat goo si 2013 / Jing cha gu shi (Дин Шэн / Ding Sheng) [2013, Китай, Гонконг, криминал, драма, триллер, боевик, HDRip] DVO (GREEN TEA)

Как скачивать? · Что такое торрент? · Рейтинг и ограничения

Сайт не распространяет и не хранит электронные версии произведений, а лишь предоставляет доступ к создаваемому пользователями каталогу ссылок на торрент-файлы, которые содержат только списки хеш-сумм

[Профиль] [ЛС]
Показать сообщения:    
Ответить на тему

Текущее время: Сегодня 05:19

Часовой пояс: GMT + 4



Вы не можете начинать темы
Вы не можете отвечать на сообщения
Вы не можете редактировать свои сообщения
Вы не можете удалять свои сообщения
Вы не можете голосовать в опросах
Вы не можете прикреплять файлы к сообщениям
Вы не можете скачивать файлы