Саундтрек / Soundtrack (Нирав Гхош / Neerav Ghosh) [2011, Индия, Драма, WEB-DL 720p] MVO (Red Media) + Original + Sub eng

Ответить на тему
 
Автор Сообщение

user ®

Стаж: 13 лет

Сообщений: 15070

Пост Пост: #1 от 21-Апр-2014 22:10

[Цитировать]

Саундтрек / Soundtrack
-Страна: Индия
Жанр: Драма
Год выпуска: 2011
Продолжительность: 02:13:00--Перевод: Профессиональный (многоголосый, закадровый)
Cубтитры: Английские
Оригинальная дорожка: Хинди--Режиссер: Нирав Гхош / Neerav Ghosh-В ролях: Раджив Кханделвал, Соха Али Кхан, Мриналини Шарма, Мохан Капур, Ятин Карйекар, Анкур Тевари, Сиддхарат Коутто, Ману Риши, Акил, Бани, Харджит Сони Бхундпал, Аниса Батт, Анураг Кашьяп, Кайлаш Кхер, Салим Мерчант, Ану Малик, Крутика Десаи, Маллишка, Рекха Десаи--Описание: Фильм основан на реальных событиях, произошедших с легендарным Диджеем Раунаком. Это история о триумфе человеческого духа. Приехав в Мумбай с рюкзаком за плечами и гитарой в руке, за одну ночь Раунак достиг феноменального успеха как композитор и Диджей. Телефоны радиостанций разрывались от зконков слушателей с просьбой поставить композицию Раунака. Такой стремительный успех вскружил голову Раунаку. Он и ранее был падок на алкоголь, но сейчас ему стали доступны и притягательны все способы достижения искусственного удовольствия. Жизнь казалась раем. Но готов ли он к нему. Его пристрастия и работа в ночном клубе привели к необратимым последствиям. Раунак потерял слух. Какой конец у этой реальной истории, узнаете сами. (c) zvezdochkamoya-- --Качество видео: WEB-DL 720p
Формат видео: MKV-Видео: AVC 1280x544 24 fps 3 886 Kbps
Аудио #1: AC3 48000Hz 2ch 192Kbps [Rus]
Аудио #2: AC3 48000Hz 2ch 224Kbps [Hindi]--Сведение аудио: soso4eg-Спасибо dantesas за исходный русский звук =)--Сэмпл / Sample--

Скриншот c названием фильма


-

Скриншоты


-

MI

General
Unique ID : 241754793497246600597082819066213970422 (0xB5E04793D60B279C9F4552F2FF8431F6)
Complete name : P:\[Релизы]\Soundtrack.2011.WEB-DL.720p-soso4eg.mkv
Format : Matroska
Format version : Version 4 / Version 2
File size : 4.09 GiB
Duration : 2h 13mn
Overall bit rate : 4 390 Kbps
Encoded date : UTC 2014-04-20 13:29:40
Writing application : mkvmerge v6.4.1 ('Omega Point') built on Sep 16 2013 22:05:10
Writing library : libebml v1.3.0 + libmatroska v1.4.1
Video
ID : 1
Format : AVC
Format/Info : Advanced Video Codec
Format profile : High@L3.1
Format settings, CABAC : Yes
Format settings, ReFrames : 3 frames
Codec ID : V_MPEG4/ISO/AVC
Duration : 2h 13mn
Bit rate : 3 886 Kbps
Width : 1 280 pixels
Height : 544 pixels
Display aspect ratio : 2.35:1
Frame rate mode : Constant
Frame rate : 24.000 fps
Color space : YUV
Chroma subsampling : 4:2:0
Bit depth : 8 bits
Scan type : Progressive
Bits/(Pixel*Frame) : 0.233
Stream size : 3.62 GiB (89%)
Writing library : Zencoder Video Encoding System
Default : Yes
Forced : No
Audio #1
ID : 2
Format : AC-3
Format/Info : Audio Coding 3
Mode extension : CM (complete main)
Format settings, Endianness : Big
Codec ID : A_AC3
Duration : 2h 13mn
Bit rate mode : Constant
Bit rate : 192 Kbps
Channel(s) : 2 channels
Channel positions : Front: L R
Sampling rate : 48.0 KHz
Bit depth : 16 bits
Compression mode : Lossy
Delay relative to video : -1ms
Stream size : 183 MiB (4%)
Title : Red Media AC3 2ch -=soso4eg=-
Language : Russian
Default : Yes
Forced : Yes
Audio #2
ID : 3
Format : AC-3
Format/Info : Audio Coding 3
Mode extension : CM (complete main)
Format settings, Endianness : Big
Codec ID : A_AC3
Duration : 2h 13mn
Bit rate mode : Constant
Bit rate : 224 Kbps
Channel(s) : 2 channels
Channel positions : Front: L R
Sampling rate : 48.0 KHz
Bit depth : 16 bits
Compression mode : Lossy
Delay relative to video : -1ms
Stream size : 214 MiB (5%)
Title : Original AC3 2ch
Language : Hindi
Default : No
Forced : No
Text
ID : 4
Format : UTF-8
Codec ID : S_TEXT/UTF8
Codec ID/Info : UTF-8 Plain Text
Title : Sub eng
Language : English
Default : No
Forced : No
Скачать

Скачать торрент! Саундтрек / Soundtrack (Нирав Гхош / Neerav Ghosh) [2011, Индия, Драма, WEB-DL 720p] MVO (Red Media) + Original + Sub eng

Как скачивать? · Что такое торрент? · Рейтинг и ограничения

Сайт не распространяет и не хранит электронные версии произведений, а лишь предоставляет доступ к создаваемому пользователями каталогу ссылок на торрент-файлы, которые содержат только списки хеш-сумм

[Профиль] [ЛС]
Показать сообщения:    
Ответить на тему

Текущее время: Сегодня 15:16

Часовой пояс: GMT + 4



Вы не можете начинать темы
Вы не можете отвечать на сообщения
Вы не можете редактировать свои сообщения
Вы не можете удалять свои сообщения
Вы не можете голосовать в опросах
Вы не можете прикреплять файлы к сообщениям
Вы не можете скачивать файлы