Булаг - Святой источник (Солбон Лыгденов) [2013, Социальная драма, WEB-DL, AVC]

Ответить на тему
 
Автор Сообщение

user ®

Стаж: 7 лет 7 месяцев

Сообщений: 20008

Пост Пост: #1 от 17-Апр-2014 12:50

[Цитировать]

Булаг - Святой источник / режиссерская версия
Жанр: Социальная драма
Год выпуска: 2013
Продолжительность: 02:15:16
Режиссёр: Солбон Лыгденов
В ролях: Владимир Ширапов, Игорь Петренко, Александр Голубев, Бэлик Дамбаев, Сэнгэ Ломбоев, Дугар Жалсанов, Виталий Нестеров, Альбина Балданова, Балжит Очирова, Булат Цыденов
Описание: Главный герой фильма — мужчина средних лет, сельский интеллигент, сильно злоупотребляющий алкоголем, — ввязывается в криминальную добычу нефрита.
Доп. информация: оператор : Дмитрий Ильков
композитор: Виктор Жалсанов
художник: Ася Лыгденова
монтаж: Чингиз Бадмаев
бюджет: 2 000 000 руб.

Сэмпл: http://multi-up.com/967608
Качество видео: WEB-DL
Формат видео: MP4
Видео: AVC, 1280х720 , 16:9, 25 кадров/сек, 1760 Кбит/сек
Аудио: Русский, Бурятский, AAC, 44,1 КГц, 192 Кбит/сек, Front: L R

MediaInfo

Полное имя : C:\Downloads\Фильм 'Булаг - святой источник'. Режиссерская версия. (Улан-Удэ2013г).mp4
Формат : MPEG-4
Профиль формата : Base Media / Version 2
Идентификатор кодека : mp42
Размер файла : 1,85 Гбайт
Продолжительность : 2 ч. 15 м.
Режим общего битрейта : Переменный
Общий поток : 1955 Кбит/сек
Дата кодирования : UTC 2014-02-16 19:59:48
Дата пометки : UTC 2014-02-16 19:59:48
gsst : 0
gstd : 8115095
gssd : B4A7D6E41HH1397719466815980
gshh : r1---sn-n8v7sn7e.googlevideo.com
Видео
Идентификатор : 1
Формат : AVC
Формат/Информация : Advanced Video Codec
Профиль формата : High@L3.1
Параметр CABAC формата : Да
Параметр ReFrames формата : 1 кадр
Идентификатор кодека : avc1
Идентификатор кодека/Информация : Advanced Video Coding
Продолжительность : 2 ч. 15 м.
Битрейт : 1760 Кбит/сек
Максимальный битрейт : 8784 Кбит/сек
Ширина : 1280 пикселей
Высота : 720 пикселей
Соотношение сторон : 16:9
Режим частоты кадров : Постоянный
Частота кадров : 25,000 кадров/сек
Цветовое пространство : YUV
Субдискретизация насыщенности : 4:2:0
Битовая глубина : 8 бит
Тип развёртки : Прогрессивная
Бит/(Пиксели*Кадры) : 0.076
Размер потока : 1,66 Гбайт (90%)
Дата пометки : UTC 2014-02-16 20:08:12
Аудио
Идентификатор : 2
Формат : AAC
Формат/Информация : Advanced Audio Codec
Профиль формата : LC
Идентификатор кодека : 40
Продолжительность : 2 ч. 15 м.
Вид битрейта : Переменный
Битрейт : 192 Кбит/сек
Максимальный битрейт : 203 Кбит/сек
Каналы : 2 канала
Расположение каналов : Front: L R
Частота : 44,1 КГц
Метод сжатия : С потерями
Размер потока : 186 Мбайт (10%)
Заголовок : IsoMedia File Produced by Google, 5-11-2011
Дата кодирования : UTC 2014-02-16 20:04:40
Дата пометки : UTC 2014-02-16 20:08:12

Скриншот c названием фильма

Скриншоты





Скачать

Скачать торрент!

Как скачивать? · Что такое торрент? · Рейтинг и ограничения

Сайт не распространяет и не хранит электронные версии произведений, а лишь предоставляет доступ к создаваемому пользователями каталогу ссылок на торрент-файлы, которые содержат только списки хеш-сумм

[Профиль] [ЛС]
Показать сообщения:    
Ответить на тему

Текущее время: Сегодня 07:54

Часовой пояс: GMT + 4



Вы не можете начинать темы
Вы не можете отвечать на сообщения
Вы не можете редактировать свои сообщения
Вы не можете удалять свои сообщения
Вы не можете голосовать в опросах
Вы не можете прикреплять файлы к сообщениям
Вы не можете скачивать файлы