Гок, Похититель Тел из Ада / Goke, Body Snatcher from Hell / Kyuketsuki Gokemidoro (Хайме Сато / Hajime Sato) [1968, Япония, фантастика, ужасы, DVDRip] VO (SATKUR)

Ответить на тему
 
Автор Сообщение

user ®

Стаж: 11 лет

Сообщений: 15151

Пост Пост: #1 от 13-Апр-2014 22:20

[Цитировать]

Гок, Похититель Тел из Ада / Goke, Body Snatcher from Hell / Kyuketsuki Gokemidoro
Страна: Япония
Жанр: фантастика, ужасы
Год выпуска: 1968
Продолжительность: 01:23:48
Перевод: Одноголосый закадровый SATKUR
Cубтитры: нет
Оригинальная аудиодорожка: Японский
Режиссер: Хайме Сато / Hajime Sato
В ролях: Тэруо Йошида, Томоми Сато, Эицо Китамура, Хидео Ко, Кэти Хоран, Юко Кусуноки, Кадзуо Като, Хироюки Нисимото, Эндрю Хьюз, Кейичи Нода
Описание: Небольшой гражданский самолет во время своего полета столкнулся с необычными явлениями — кроваво-красным небом, и самоубийствами птиц, трупики которых так и норовят влететь в иллюминатор. Недалеко от пункта назначения пилотам сообщают, что на борту может находиться бомба, и ее поиски провоцируют «раскрыться» террориста-снайпера, приказавшего экипажу менять курс. Но тут над самолетом неожиданно пролетает ярко светящаяся «летающая тарелка», турбина лайнера загорается, и он терпит катастрофу в скалистой безлюдной местности.
В живых остаются десять человек, часть из которых очень быстро начинает истерить, а неожиданно оживший террорист, которого поначалу посчитали мертвым, захватывает стюардессу и скрывается в горах. Там он обнаруживает летающую тарелку, которая гипнозом заманивает его на борт, где в тело террориста вселяется кашеобразный «чужой». Ставший теперь «космическим вампиром», террорист возвращается к людям, чтобы сосать из них кровь, а те, вместо того, чтобы сообща противостоять смертельной угрозе, лишь грызутся меж собой, облегчая инопланетянам задачу.
Семпл: http://multi-up.com/966840
Качество видео: DVDRip
Формат видео: AVI
Видео: XviD, 640:256 (2.500), 25,000 fps, 996 Kbps
Аудио 1: 48 kHz, AC3 Dolby Digital, 2/0 (L,R) ch, ~192.00 kbps - русский
Аудио 2: 48 kHz, AC3 Dolby Digital, 2/0 (L,R) ch, ~192.00 kbps - японский

MediaInfo

Общее
Полное имя : D:\FILM\F-2014\Disk-37\Kyuketsuki.Gokemidoro.1968.Jp.[vo.satkur+Jp].AC3.Rus\Kyuketsuki.Gokemidoro.1968.Jp.[vo.satkur+Jp].AC3.Rus.avi
Формат : AVI
Формат/Информация : Audio Video Interleave
Размер файла : 836 Мбайт
Продолжительность : 1 ч. 23 м.
Общий поток : 1395 Кбит/сек
Программа кодирования : VirtualDubModRus 1.5.10.2 (build 2542/release)
Библиотека кодирования : VirtualDubMod build 2542/release
Видео
Идентификатор : 0
Формат : MPEG-4 Visual
Профиль формата : Simple@L1
Параметр BVOP формата : Нет
Параметр QPel формата : Нет
Параметр GMC формата : Без точки перехода
Параметр матрицы формата : Default (H.263)
Идентификатор кодека : XVID
Идентификатор кодека/Подсказка : XviD
Продолжительность : 1 ч. 23 м.
Битрейт : 997 Кбит/сек
Ширина : 640 пикселей
Высота : 256 пикселей
Соотношение сторон : 2,500
Частота кадров : 25,000 кадров/сек
Цветовое пространство : YUV
Субдискретизация насыщенности : 4:2:0
Битовая глубина : 8 бит
Тип развёртки : Прогрессивная
Метод сжатия : С потерями
Бит/(Пиксели*Кадры) : 0.243
Размер потока : 597 Мбайт (71%)
Библиотека кодирования : Lavc52.84.0
Аудио #1
Идентификатор : 1
Формат : AC-3
Формат/Информация : Audio Coding 3
Расширение режима : CM (complete main)
Параметр Endianness формата : Big
Идентификатор кодека : 2000
Продолжительность : 1 ч. 23 м.
Вид битрейта : Постоянный
Битрейт : 192 Кбит/сек
Каналы : 2 канала
Расположение каналов : Front: L R
Частота : 48,0 КГц
Битовая глубина : 16 бит
Метод сжатия : С потерями
Размер потока : 115 Мбайт (14%)
Выравнивание : Разделение по промежуткам
Продолжительность промежутка : 40 мс. (1,00 видеокадр)
Время предзагрузки промежутка : 500 мс.
Аудио #2
Идентификатор : 2
Формат : AC-3
Формат/Информация : Audio Coding 3
Расширение режима : CM (complete main)
Параметр Endianness формата : Big
Идентификатор кодека : 2000
Продолжительность : 1 ч. 23 м.
Вид битрейта : Постоянный
Битрейт : 192 Кбит/сек
Каналы : 2 канала
Расположение каналов : Front: L R
Частота : 48,0 КГц
Битовая глубина : 16 бит
Метод сжатия : С потерями
Размер потока : 115 Мбайт (14%)
Выравнивание : Разделение по промежуткам
Продолжительность промежутка : 40 мс. (1,00 видеокадр)
Время предзагрузки промежутка : 500 мс.

Скриншот c названием фильма

Скачать

Скачать торрент! Гок, Похититель Тел из Ада / Goke, Body Snatcher from Hell / Kyuketsuki Gokemidoro (Хайме Сато / Hajime Sato) [1968, Япония, фантастика, ужасы, DVDRip] VO (SATKUR)

Как скачивать? · Что такое торрент? · Рейтинг и ограничения

Сайт не распространяет и не хранит электронные версии произведений, а лишь предоставляет доступ к создаваемому пользователями каталогу ссылок на торрент-файлы, которые содержат только списки хеш-сумм

[Профиль] [ЛС]
Показать сообщения:    
Ответить на тему

Текущее время: Сегодня 20:34

Часовой пояс: GMT + 4



Вы не можете начинать темы
Вы не можете отвечать на сообщения
Вы не можете редактировать свои сообщения
Вы не можете удалять свои сообщения
Вы не можете голосовать в опросах
Вы не можете прикреплять файлы к сообщениям
Вы не можете скачивать файлы