Залётчики (Кирилл Кузин) [2014, комедия, WEBRip]

Ответить на тему
 
Автор Сообщение

user ®

Стаж: 7 лет 7 месяцев

Сообщений: 20008

Пост Пост: #1 от 13-Апр-2014 11:05

[Цитировать]

Залётчики
Жанр: комедия
Год выпуска: 2014
Продолжительность: 01:19:10
Режиссёр: Кирилл Кузин
В ролях: Илья Глинников, Вано Тугуши, Екатерина Кузнецова, Гоша Куценко, Вадим Галыгин, Виктор Вержбицкий, Алексей Горбунов, Юрий Цурило, Александр Веремюк, Карел Добры
Описание: Комедия о том, как два незадачливых героя, один из которых мечтал стать летчиком, а другой актером, случайно получают шанс исполнить обе мечты разом на съемочной площадке нового фильма. Однако в первой же сцене они умудряются разбить вертолет спонсора, что сулит им массу проблем. Чтобы возместить ущерб приятели вынуждены пуститься во все тяжкие — попытаться ограбить олигарха, заработать натурой и даже попробовать угнать вертолет с американской авиабазы.

Сэмпл: http://sendfile.su/966773
Качество видео: WEBRip
Формат видео: AVI
Видео: 2012 Kb/s, 720x400, 16:9, 25.000 fps, 0.280 Bits/(Pixel*Frame)
Аудио: AC3, 448 Kb/s (2 ch), 48.0 KHz

MediaInfo

General
Complete name : D:\Фильмы\Zalet4iki.2014.WEBRip.avi
Format : AVI
Format/Info : Audio Video Interleave
File size : 1.37 GiB
Duration : 1h 19mn
Overall bit rate : 2 471 Kbps
Writing application : VirtualDubMod 1.5.10.3 | www.virtualdub-fr.org || (build 2550/release)
Writing library : VirtualDubMod build 2550/release
Video
ID : 0
Format : MPEG-4 Visual
Format profile : Advanced Simple@L5
Format settings, BVOP : 2
Format settings, QPel : No
Format settings, GMC : No warppoints
Format settings, Matrix : Default (MPEG)
Codec ID : XVID
Codec ID/Hint : XviD
Duration : 1h 19mn
Bit rate : 2 013 Kbps
Width : 720 pixels
Height : 400 pixels
Display aspect ratio : 16:9
Frame rate : 25.000 fps
Color space : YUV
Chroma subsampling : 4:2:0
Bit depth : 8 bits
Scan type : Progressive
Compression mode : Lossy
Bits/(Pixel*Frame) : 0.280
Stream size : 1.11 GiB (81%)
Writing library : XviD 1.2.1 (UTC 2008-12-04)
Audio
ID : 1
Format : AC-3
Format/Info : Audio Coding 3
Mode extension : CM (complete main)
Format settings, Endianness : Big
Codec ID : 2000
Duration : 1h 19mn
Bit rate mode : Constant
Bit rate : 448 Kbps
Channel(s) : 2 channels
Channel positions : Front: L R
Sampling rate : 48.0 KHz
Bit depth : 16 bits
Compression mode : Lossy
Stream size : 254 MiB (18%)
Alignment : Split accross interleaves
Interleave, duration : 40 ms (1.00 video frame)
Interleave, preload duration : 500 ms

Скриншот c названием фильма

Скриншоты

Скачать

Скачать торрент!

Как скачивать? · Что такое торрент? · Рейтинг и ограничения

Сайт не распространяет и не хранит электронные версии произведений, а лишь предоставляет доступ к создаваемому пользователями каталогу ссылок на торрент-файлы, которые содержат только списки хеш-сумм

[Профиль] [ЛС]
Показать сообщения:    
Ответить на тему

Текущее время: Сегодня 09:43

Часовой пояс: GMT + 4



Вы не можете начинать темы
Вы не можете отвечать на сообщения
Вы не можете редактировать свои сообщения
Вы не можете удалять свои сообщения
Вы не можете голосовать в опросах
Вы не можете прикреплять файлы к сообщениям
Вы не можете скачивать файлы