Французский вальс (Сергей Микаэлян) [1994, военный фильм, драма, мелодрама, DVB]

Ответить на тему
 
Автор Сообщение

user ®

Стаж: 7 лет 7 месяцев

Сообщений: 20008

Пост Пост: #1 от 12-Апр-2014 14:00

[Цитировать]

Французский вальс
Жанр: военный фильм, драма, мелодрама
Год выпуска: 1994
Продолжительность: 01:29:07
Режиссёр: Сергей Микаэлян
В ролях: Ирина Лачина, Дона Гибер, Робер Парти, Иван Шведов, Ия Ужова, Д. Егорова, И. Миронова, Г. Фёдорова, Е. Чугунова, И. Гуцунаева, Дмитрий Быстревский, Галина Казакина
Описание: Франция, Вторая мировая война. Командир французского партизанского отряда Арни влюбляется в русскую девушку Елену, бежавшую из плена. В их роман война внесла свои жестокие коррективы.
Доп. информация: Запись потока *.ts со спутника HOT BIRD, ремукс в *.mpg программой VideoReDo.
Качество видео: DVB
Формат видео: MPEG-PS
Видео: MPEG Video, 704(768)x576 (4:3), 25,000 кадров/сек, 2 640 Кбит/сек
Аудио: MPEG Audio, 48,0 КГц, 192 Кбит/сек, 2 канала

MediaInfo

General
Complete name : D:\MPG\Французский вальс (Nashe Kino).mpg
Format : MPEG-PS
File size : 1.80 GiB
Duration : 1h 29mn
Overall bit rate mode : Variable
Overall bit rate : 2 890 Kbps
Video
ID : 224 (0xE0)
Format : MPEG Video
Format version : Version 2
Format profile : Main@Main
Format settings, BVOP : Yes
Format settings, Matrix : Custom
Format settings, GOP : Variable
Duration : 1h 29mn
Bit rate mode : Variable
Bit rate : 2 640 Kbps
Maximum bit rate : 15.0 Mbps
Width : 704 pixels
Height : 576 pixels
Display aspect ratio : 4:3
Frame rate : 25.000 fps
Standard : PAL
Color space : YUV
Chroma subsampling : 4:2:0
Bit depth : 8 bits
Scan type : Interlaced
Scan order : Top Field First
Compression mode : Lossy
Bits/(Pixel*Frame) : 0.260
Time code of first frame : 00:00:00:00
Time code source : Group of pictures header
Stream size : 1.64 GiB (91%)
Audio
ID : 192 (0xC0)
Format : MPEG Audio
Format version : Version 1
Format profile : Layer 2
Duration : 1h 29mn
Bit rate mode : Constant
Bit rate : 192 Kbps
Channel count : 2 channels
Sampling rate : 48.0 KHz
Compression mode : Lossy
Delay relative to video : 13ms
Stream size : 122 MiB (7%)

Скриншот c названием фильма

Скачать

Скачать торрент!

Как скачивать? · Что такое торрент? · Рейтинг и ограничения

Сайт не распространяет и не хранит электронные версии произведений, а лишь предоставляет доступ к создаваемому пользователями каталогу ссылок на торрент-файлы, которые содержат только списки хеш-сумм

[Профиль] [ЛС]
Показать сообщения:    
Ответить на тему

Текущее время: Сегодня 02:18

Часовой пояс: GMT + 4



Вы не можете начинать темы
Вы не можете отвечать на сообщения
Вы не можете редактировать свои сообщения
Вы не можете удалять свои сообщения
Вы не можете голосовать в опросах
Вы не можете прикреплять файлы к сообщениям
Вы не можете скачивать файлы