Брат 2 (Алексей Балабанов) [2000 г., боевик, криминал, DVDRip]

Ответить на тему
 
Автор Сообщение

user ®

Стаж: 7 лет 7 месяцев

Сообщений: 20008

Пост Пост: #1 от 11-Апр-2014 06:15

[Цитировать]

-Брат 2--Год выпуска: 2000
Жанр: боевик, криминал
Продолжительность: 02:02:37--Режиссер: Алексей Балабанов--В ролях:
Сергей Бодров (Данила Багров) ,Виктор Сухоруков (Виктор Багров) , Александр Дьяченко (Константин Громов, Дмитрий Громов) , Сергей Маковецкий (Валентин Белкин) , Кирилл Пирогов (Илья Сетевой) , Дарья Лесникова (Даша / Мерилин) , Гари Хьюстон (Мэнис) , Ирина Салтыкова (камео) , Рей Толер (Бен Джонсон) , Александр Карамнов (Борис, охранник Салтыковой) , Константин Мурзенко («Фашист», археолог-оружейник), Иван Демидов (ведущий программы «В мире людей») , Аркадий Зерский (Куйбышев, сомнительный продавец-еврей) , Ирина Рахманова (девушка в бане) , Инна Капнулина (девушка в бане) , Егор Пазенко (следователь в отделении милиции допрашивающий Данилу)
--Описание:
Второй фильм о культовом русском герое 90-х – Даниле Багрове.
Участвуя в программе на телевидении, Данила Багров встречает своих друзей по Чечне. Одного из них внезапно убивают. Данила знает, что у друга были неприятности из-за брата-хоккеиста в Америке. Данила должен разобраться. Теперь его фотография ходит по рукам русской и американской мафии. Новоявленные «Аль Капоне» понимают, что нарвались на профессионала…
-Доп. информация:-
Сэмпл Рип совместим с бытовыми DVD-проигрывателями. --Качество видео: DVDRip
Формат видео: AVI
Видео: 544x320 (1.70:1), 25 fps, XviD build 73 ~711 kbps avg, 0.16 bit/pixel
Аудио: 48 kHz, MPEG Layer 3, 2 ch, 128.00 kbps-

MediaInfo

General
Complete name : \Brat_2_(2000).DVDRip.XviD_[All.Films][RG].avi
Format : AVI
Format/Info : Audio Video Interleave
File size : 745 MiB
Duration : 2h 2mn
Overall bit rate : 849 Kbps
Movie name : Брат 2 (2000) DVDRip | [All.Films][RG]
Director : | []
Writing application : VirtualDubMod 1.5.10.3 | www.virtualdub-fr.org || (build 2550/release)
Video
ID : 0
Format : MPEG-4 Visual
Format profile : Advanced Simple@L5
Format settings, BVOP : 2
Format settings, QPel : No
Format settings, GMC : No warppoints
Format settings, Matrix : Custom
Codec ID : XVID
Codec ID/Hint : XviD
Duration : 2h 2mn
Bit rate : 712 Kbps
Width : 544 pixels
Height : 320 pixels
Display aspect ratio : 1.700
Frame rate : 25.000 fps
Color space : YUV
Chroma subsampling : 4:2:0
Bit depth : 8 bits
Scan type : Progressive
Compression mode : Lossy
Bits/(Pixel*Frame) : 0.164
Stream size : 624 MiB (84%)
Writing library : XviD 73
Audio
ID : 1
Format : MPEG Audio
Format version : Version 1
Format profile : Layer 3
Codec ID : 55
Codec ID/Hint : MP3
Duration : 2h 2mn
Bit rate mode : Constant
Bit rate : 128 Kbps
Channel count : 2 channels
Sampling rate : 48.0 KHz
Compression mode : Lossy
Stream size : 112 MiB (15%)
Alignment : Aligned on interleaves
Interleave, duration : 40 ms (1.00 video frame)
Interleave, preload duration : 504 ms

Скриншоты



Скачать

Скачать торрент!

Как скачивать? · Что такое торрент? · Рейтинг и ограничения

Сайт не распространяет и не хранит электронные версии произведений, а лишь предоставляет доступ к создаваемому пользователями каталогу ссылок на торрент-файлы, которые содержат только списки хеш-сумм

[Профиль] [ЛС]
Показать сообщения:    
Ответить на тему

Текущее время: Сегодня 10:06

Часовой пояс: GMT + 4



Вы не можете начинать темы
Вы не можете отвечать на сообщения
Вы не можете редактировать свои сообщения
Вы не можете удалять свои сообщения
Вы не можете голосовать в опросах
Вы не можете прикреплять файлы к сообщениям
Вы не можете скачивать файлы