Дух живого леса / Espiritu del bosque (Дэвид Рубин / David Rubin, Хуан Пине / Juane C. Pena) [2008, Мультфильм, комедия, приключение, DVDRip] Dub

Ответить на тему
 
Автор Сообщение

user ®

Стаж: 13 лет

Сообщений: 15041

Пост Пост: #1 от 08-Апр-2014 21:30

[Цитировать]

Дух живого леса / Espiritu del bosque
Страна: Испания
Жанр: Мультфильм, комедия, приключение
Продолжительность: 01:14:36
Год выпуска: 2008
Перевод: Профессиональный (дублированный) (Сонатек по заказу телеэкспорт в 2010 г.)
Русские субтитры: нет
Режиссёр: Дэвид Рубин / David Rubin, Хуан Пине / Juanе C. Pena
Роли дублировали: Дмитрий Курта, Ирина Киреева, Никита Прозаровский, Диамин Виноградов, Лариса Брохма, Александр Гаврилин, Дмитрий Филимонов, Алексей Борзунов, Ольга Кузнецова, Ольга Шорохова, Михаил Гульда, Кристина Степаненко, Артём Херапетян и Александр Груздь
Описание: Влиятельный бизнесмен собирается строить автомагистраль, а злобная миссис Д’Абондо только и ждет повода, чтобы избавиться от Леса. Деревьям Живого леса и старому Дубу грозит опасность, и те советуют животным, обитающим в Лесу, спасаться бегством. Однако кроты Фури и Линда, а также мышонок Пьорно не собираются сдаваться. К ним присоединяется маленький пугливый крот Себоло, недавно переехавший из города в Лес. На помощь друзьям также приходит клан диких кошек под предводительством храброго Тигра. Даже назойливые мухи Хи-Хи и Хо-Хо решают помочь им. Когда друзья обнаруживают, что миссис Д’Абондо боится привидений, Фури в голову приходит отличная идея… пробудить Дух Живого Леса.
Семпл: http://www.sendspace.com/file/axua2f
Качество: DVDRip
Формат: AVI
Видео: XviD; 1831 Кбит/сек; 720х400 (16:9); 25,000 кадров/сек
Аудио: AC-3; 192 Кбит/сек; 6 каналов; 48,0 КГц
Субтитры: Отсутствуют

Подробные технические данные

ОбщееПолное имя : E:\закачки\Дух живого леса DVDrip [***].aviФормат : AVIФормат/Информация : Audio Video InterleaveРазмер файла : 1,06 ГбайтПродолжительность : 1 ч. 14 м.Общий поток : 2033 Кбит/секПрограмма кодирования : VirtualDubMod 1.5.10.2 (build 2540/release)Библиотека кодирования : VirtualDubMod build 2540/release
ВидеоИдентификатор : 0Формат : MPEG-4 VisualПрофиль формата : Advanced Simple@L5Параметр BVOP формата : 2Параметр QPel формата : НетПараметр GMC формата : Без точки переходаПараметр матрицы формата : Default (H.263)Идентификатор кодека : XVIDИдентификатор кодека/Подсказка : XviDПродолжительность : 1 ч. 14 м.Битрейт : 1831 Кбит/секШирина : 720 пикселейВысота : 400 пикселейСоотношение сторон : 16:9Частота кадров : 25,000 кадров/секЦветовое пространство : YUVСубдискретизация насыщенности : 4:2:0Битовая глубина : 8 битТип развёртки : ЧересстрочнаяПорядок развёртки : Нижнее поле первоеМетод сжатия : С потерямиБит/(Пиксели*Кадры) : 0.254Размер потока : 977 Мбайт (90%)Библиотека кодирования : XviD 1.2.1 (UTC 2008-12-04)
АудиоИдентификатор : 1Формат : AC-3Формат/Информация : Audio Coding 3Расширение режима : CM (complete main)Параметр Endianness формата : BigИдентификатор кодека : 2000Продолжительность : 1 ч. 14 м.Вид битрейта : ПостоянныйБитрейт : 192 Кбит/секКаналы : 6 каналовРасположение каналов : Front: L C R, Side: L R, LFEЧастота : 48,0 КГцБитовая глубина : 16 битМетод сжатия : С потерямиРазмер потока : 102 Мбайт (9%)Выравнивание : Соединение по промежуткамПродолжительность промежутка : 40 мс. (1,00 видеокадр)Время предзагрузки промежутка : 512 мс.

Скриншоты

Скачать

Скачать торрент! Дух живого леса / Espiritu del bosque (Дэвид Рубин / David Rubin, Хуан Пине / Juane C. Pena) [2008, Мультфильм, комедия, приключение, DVDRip] Dub

Как скачивать? · Что такое торрент? · Рейтинг и ограничения

Сайт не распространяет и не хранит электронные версии произведений, а лишь предоставляет доступ к создаваемому пользователями каталогу ссылок на торрент-файлы, которые содержат только списки хеш-сумм

[Профиль] [ЛС]
Показать сообщения:    
Ответить на тему

Текущее время: Сегодня 19:58

Часовой пояс: GMT + 4



Вы не можете начинать темы
Вы не можете отвечать на сообщения
Вы не можете редактировать свои сообщения
Вы не можете удалять свои сообщения
Вы не можете голосовать в опросах
Вы не можете прикреплять файлы к сообщениям
Вы не можете скачивать файлы