Удивительные приключения Хомы (Владимир Тарасов, Алексей Штыхин, Дмитрий Семёнов, Борис Тузанович) [2005, мультфильм, TVRip]

Ответить на тему
 
Автор Сообщение

user ®

Стаж: 7 лет 7 месяцев

Сообщений: 20008

Пост Пост: #1 от 08-Апр-2014 21:30

[Цитировать]

Удивительные приключения Хомы
Страна: Россия
Жанр: мультфильм
Продолжительность: 00:13:00
Год выпуска: 2005
Режиссёр: Владимир Тарасов, Алексей Штыхин, Дмитрий Семёнов, Борис Тузанович
Роли озвучивали: Сергей Белоголовцев, Павел Кабанов, Никита Прозоровский, Ольга Зверева и другие
Описание: Сериал был снят по мотивам произведений о Хоме Альберта Иванова. В каждой серии с Хомой и его другом Сусликом происходят различные переделки, из которых они находят выход благодаря своей дружбе. wikipedia
Список серий:
01 - как Хома и Суслик не разлучались.avi
02 - как Хома свою нору искал.avi
03 - как Хома звезды спасал.avi
04 - как Хома рыбу ловил.avi
05 - как друзья Хому лечили.avi
06 - как Хома страшные истории рассказывал.avi
07 - как Хома Суслика покупал.avi
Качество: TVRip
Формат: AVI
Видео: 640x480 (4:3), 25 fps, XviD MPEG-4 ~1500 kbps avg
Аудио: 44.100 kHz, MPEG Layer 3, 1 ch, ~128 kbps avg

Подробные технические данные

General 01 - как Хома и Суслик не разлучались.avi Format : AVI Format/Info : Audio Video Interleave File size : 150 MiB Duration : 13mn 13s Overall bit rate : 1 586 Kbps Writing application : VirtualDubMod 1.5.10.2 (build 2540/release) Writing library : VirtualDubMod build 2540/release Video #0 ID : 0 Format : MPEG-4 Visual Format profile : Advanced Simple@L5 Format settings, BVOP : 2 Format settings, QPel : No Format settings, GMC : No warppoints Format settings, Matrix : Default (H.263) Muxing mode : Packed bitstream Codec ID : DX50 Codec ID/Hint : DivX 5 Duration : 13mn 13s Bit rate : 1 448 Kbps Width : 640 pixels Height : 480 pixels Display aspect ratio : 4:3 Frame rate : 25.000 fps Color space : YUV Chroma subsampling : 4:2:0 Bit depth : 8 bits Scan type : Progressive Compression mode : Lossy Bits/(Pixel*Frame) : 0.189 Stream size : 137 MiB (91%) Writing library : XviD 1.2.0SMP (UTC 2006-01-08) Audio #1 ID : 1 Format : MPEG Audio Format version : Version 1 Format profile : Layer 3 Mode : Joint stereo Mode extension : MS Stereo Codec ID : 55 Codec ID/Hint : MP3 Duration : 13mn 13s Bit rate mode : Constant Bit rate : 128 Kbps Channel(s) : 2 channels Sampling rate : 44.1 KHz Compression mode : Lossy Stream size : 12.1 MiB (8%) Alignment : Split accross interleaves Interleave, duration : 40 ms (1.00 video frame) Interleave, preload duration : 500 ms

Скриншоты

Скачать

Скачать торрент!

Как скачивать? · Что такое торрент? · Рейтинг и ограничения

Сайт не распространяет и не хранит электронные версии произведений, а лишь предоставляет доступ к создаваемому пользователями каталогу ссылок на торрент-файлы, которые содержат только списки хеш-сумм

[Профиль] [ЛС]
Показать сообщения:    
Ответить на тему

Текущее время: Сегодня 15:39

Часовой пояс: GMT + 4



Вы не можете начинать темы
Вы не можете отвечать на сообщения
Вы не можете редактировать свои сообщения
Вы не можете удалять свои сообщения
Вы не можете голосовать в опросах
Вы не можете прикреплять файлы к сообщениям
Вы не можете скачивать файлы