Мисудзу / Misuzu (Сё Игараси / Sho Igarashi) [2001, Япония, драма, биография, DVDRip] Sub Rus

Ответить на тему
 
Автор Сообщение

user ®

Стаж: 11 лет

Сообщений: 15151

Пост Пост: #1 от 02-Апр-2014 20:40

[Цитировать]

Мисудзу / Misuzu / みすゞ
Страна: Япония
Жанр: драма, биография
Год выпуска: 2001
Продолжительность: 01:45:43
Перевод: Субтитры Rus
Cубтитры: русские
Оригинальная аудиодорожка: японский
Режиссер: Сё Игараси / Sho Igarashi
В ролях: Мисато Танака, Эйко Нагасима, Рё Касэ, Нодзому Масудзава, Сусуму Тэрасима, Рэна Коминэ, Иссэй Огата, Кацуо Накамура
Описание: Грустная соната о жизни знаменитой японской писательницы Мисудзу Канэко (1903-1930), автора блестящих детских стихов и песенок.
> > > > >
Качество видео: DVDRip
Формат видео: AVI
Видео: 720x400 (1.80:1), 23.976 fps, XviD build 50 ~1232 kbps avg, 0.18 bit/pixel
Аудио: 48 kHz, MPEG Layer 3, 2 ch, ~192.00 kbps avg
Формат субтитров: softsub (SRT)
Доп. информация о субтитрах: дед_сто_лет

Пример субтитров

100
00:22:30,203 --> 00:22:33,764
Он мечтал открыть магазин за границей.
101
00:22:33,907 --> 00:22:35,534
Это он послал его туда..
102
00:22:39,846 --> 00:22:42,076
- Неужели?
- Определенно.
103
00:22:45,752 --> 00:22:47,185
Вы мне не верите?
104
00:22:54,294 --> 00:22:56,626
Мне приятно так думать.
105
00:22:57,463 --> 00:23:01,593
Поминаешь, он действительно был очень рад.
106
00:23:18,985 --> 00:23:22,944
Волшебная палочка...
107
00:23:30,596 --> 00:23:36,592
Если бы мне дали волшебную палочку...
108
00:23:38,805 --> 00:23:40,432
Торт Кастелла...
109
00:23:42,742 --> 00:23:44,903
Засахаренные бобы...
110
00:23:56,789 --> 00:23:58,620
Мальчик-с-пальчик...
111
00:24:05,031 --> 00:24:06,999
У вас какое-то дело?
112
00:24:29,722 --> 00:24:32,122
Сейчас налью воды.
113
00:25:04,090 --> 00:25:07,617
Если бы мне дали волшебную палочку...
114
00:25:29,615 --> 00:25:34,985
Если бы мне дали волшебную палочку...
Что бы я хотела получить?
115
00:25:35,822 --> 00:25:39,690
Сладкий мармелад,
засахаренные бобы, торт Кастелла...
116
00:25:40,426 --> 00:25:43,589
Наручные часы, как у старшей сестры,
или даже лучше...
117
00:25:44,230 --> 00:25:47,165
Белоснежного попугая,
который умеет красиво петь...
118
00:25:47,834 --> 00:25:51,326
А ещё маленького человечка...
119
00:25:51,904 --> 00:25:55,203
В красной шапочке...
120
00:25:56,109 --> 00:25:59,442
Чтобы день за днем
любоваться его танцем.
121
00:26:00,246 --> 00:26:03,443
Нет, я хотела бы,
как сказочный пальчик-с-пальчик...
122
00:26:03,683 --> 00:26:06,117
Вырасти в одночасье...
123
00:26:06,619 --> 00:26:08,553
И стать взрослой...
124
00:26:09,522 --> 00:26:12,116
Вот было бы здорово!
125
00:26:34,747 --> 00:26:39,912
Корабли, которые причаливают
в порту, все чернеют от старости.
126
00:26:40,052 --> 00:26:45,547
А вдали от берега
все корабли сияют белизной.
127
00:26:46,159 --> 00:26:50,528
Эти дальние корабли
никогда не приходят в порт.
128
00:26:50,663 --> 00:26:55,032
По тонкой линии между небом и землей
они плывут куда-то вдаль.
129
00:26:55,168 --> 00:26:57,295
Сверкают белизной и уплывают вдаль.
130
00:27:04,677 --> 00:27:08,340
ПОДРУГА - ХОХОЁ
131
00:27:40,246 --> 00:27:42,146
Добрый день.

MediaInfo

General
Complete name : C:\Torrents\[ASIA]\Misuzu(2001)Igarashi\Misuzu(2001)Igarashi.avi
Format : AVI
Format/Info : Audio Video Interleave
File size : 1.06 GiB
Duration : 1h 45mn
Overall bit rate : 1 431 Kbps
Writing application : VirtualDubMod 1.5.4.1 (build 2178/release)
Writing library : VirtualDubMod build 2178/release
Video
ID : 0
Format : MPEG-4 Visual
Format profile : Advanced Simple@L5
Format settings, BVOP : No
Format settings, QPel : No
Format settings, GMC : No warppoints
Format settings, Matrix : Custom
Codec ID : XVID
Codec ID/Hint : XviD
Duration : 1h 45mn
Bit rate : 1 232 Kbps
Width : 720 pixels
Height : 400 pixels
Display aspect ratio : 16:9
Frame rate : 23.976 fps
Color space : YUV
Chroma subsampling : 4:2:0
Bit depth : 8 bits
Scan type : Progressive
Compression mode : Lossy
Bits/(Pixel*Frame) : 0.178
Stream size : 932 MiB (86%)
Writing library : XviD 1.2.1 (UTC 2008-12-04)
Audio
ID : 1
Format : MPEG Audio
Format version : Version 1
Format profile : Layer 3
Mode : Joint stereo
Mode extension : MS Stereo
Codec ID : 55
Codec ID/Hint : MP3
Duration : 1h 45mn
Bit rate mode : Constant
Bit rate : 192 Kbps
Channel(s) : 2 channels
Sampling rate : 48.0 KHz
Compression mode : Lossy
Stream size : 145 MiB (13%)
Alignment : Aligned on interleaves
Interleave, duration : 83 ms (2.00 video frames)
Interleave, preload duration : 504 ms
Writing library : LAME3.98r
Encoding settings : -m j -V 4 -q 2 -lowpass 18.6 -b 192
Language : Japanese

Скриншот c названием фильма

Скриншоты

Скачать

Скачать торрент! Мисудзу / Misuzu (Сё Игараси / Sho Igarashi) [2001, Япония, драма, биография, DVDRip] Sub Rus

Как скачивать? · Что такое торрент? · Рейтинг и ограничения

Сайт не распространяет и не хранит электронные версии произведений, а лишь предоставляет доступ к создаваемому пользователями каталогу ссылок на торрент-файлы, которые содержат только списки хеш-сумм

[Профиль] [ЛС]
Показать сообщения:    
Ответить на тему

Текущее время: Сегодня 21:24

Часовой пояс: GMT + 4



Вы не можете начинать темы
Вы не можете отвечать на сообщения
Вы не можете редактировать свои сообщения
Вы не можете удалять свои сообщения
Вы не можете голосовать в опросах
Вы не можете прикреплять файлы к сообщениям
Вы не можете скачивать файлы