Легенда об Искателе / Legend of the Seeker / Сезон: 1-2 (2) / Серии: 1-44 (44) (Марк Бисли, Гарт Максвелл, Майкл Херст) [2008-2010 гг., фэнтези, драма, приключения, WEB-DLRip] MVO (LostFilm)

Ответить на тему
 
Автор Сообщение

LORN-V ®

Пол:

Стаж: 4 года 6 месяцев

Сообщений: 1186

Откуда: Munchen

Пост Пост: #1 от 02-Апр-2014 14:12

[Цитировать]

--Легенда об Искателе / Legend of the Seeker--«Hope has a warrior» -Основная информация:-Год выпуска: 2008-2010
Страна: США | Syndicated
Жанр: фэнтези, драма, приключения
Продолжительность: ~ 42 минуты
Перевод: Профессиональный (многоголосый, закадровый) - LostFilm
Субтитры: Нет
Режиссёры: Марк Бисли, Гарт Максвелл, Майкл Херст
Озвучка: Студия "Kravec"
Перевод: Triada, Relicit, ViktoriaMT-В ролях: Крэйг Хорнер, Бриджет Риган, Брюс Спенс, Крэйг Паркер, Табретт Бетелл, Кевин Дж. Уилсон, Даниэль Кормак, Бен Френшам, Элизабет Блэкмор, Джей Лагаая, Джессика Маре, Девид де Латур и др.-Описание:-Ещё вчера юный Ричард Сайфер был всего лишь лесным проводником, а нынче ему выпал на долю тяжкий жребий Искателя Истины. Тяжкий, ибо магия не приносит радости, а за истину, как и за могущество, расплачиваются дорогой ценой. Тяжкий — ибо Искателю Истины надлежит вступить с величайшим из черных магов трех королевств, безжалостным Даркеном Ралом, повелителем Д`Хары, в смертельную схватку… Первое Правило Волшебника гласит: «Люди глупы. Люди глупы, и, если правдоподобно объяснить, почти все поверят во что угодно. Люди глупы и могут поверить лжи, оттого, что хотят верить, будто это правда, или от того, что боятся знать правду. Головы людей полны всякими знаниями и верованиями, большинство из которых ложны, но всё же люди в это верят. Люди глупы: они редко могут отличить правду от лжи, но не сомневаются, что способны на это. Тем легче их одурачить».- / Сэмпл / ImDB / Кинопоиск-Доп. информация:-Качество: WEB-DLRip ( & ) tHX Nez.
Формат: AVI
Видео кодек: XviD
Аудио кодек: MP3
Видео: 624x352 (16:9), 23.976 fps, ~1150 kbps, ~0.210 bit/pixel
Аудио Rus: 48 kHz, 2 ch, ~128 kbps |LostFilm|
Размер всех серий = 4хDVD5 (По 11 серий на DVD5). Приятного просмотра!

Список серий

Первый сезон

Prophecy / Пророчество
Destiny / Судьба
Bounty / Награда
Brennidon / Бреннидон
Listener / Слухач
Elixir / Эликсир
Identity / Истинная суть
Denna / Денна
Puppeteer / Кукольник
Sacrifice / Жертва
Confession / Исповедь
Home / Родной дом
Revenant / Воскрешение
Hartland / Хартлэнд
Conversion / Преображение
Bloodline / Кровные узы
Deception / Обман
Mirror / Зеркало
Cursed / Проклятье
Sanctuary / Убежище
Fever / Лихорадка
Reckoning / Расплата

Второй сезон

Marked / Меченый
Baneling / Бэйнлинг
Broken / Сломленная
Touched / Прикосновение
Wizard / Волшебник
Fury / Ярость
Resurrection / Воскрешение
Light / Свет
Dark / Тьма
Perdition / Погибель
Torn / Сердце и разум
Hunger / Голод
Princess / Принцесса
Bound / Узы
Creator / Создатель
Desecrated / Бесчестье
Vengeance / Возмездие
Walter / Уолтер
Extinction / Последняя из рода
Eternity / Вечность
Unbroken / Иная судьба
Tears / Слёзы

MediaInfo

Общее
Полное имя : F:\Legend.of.the.Seeker.s01.LostFilm\Legend.of.the.Seeker.s01e01-02.LostFilm.avi
Формат : AVI
Формат/Информация : Audio Video Interleave
Размер файла : 800 Мбайт
Продолжительность : 1 ч. 28 м.
Общий поток : 1260 Кбит/сек
Программа кодирования : VirtualDubMod 1.5.10.2 (build 2540/release)
Библиотека кодирования : VirtualDubMod build 2540/release
Видео
Идентификатор : 0
Формат : MPEG-4 Visual
Профиль формата : Advanced Simple@L5
Параметр BVOP формата : 1
Параметр QPel формата : Нет
Параметр GMC формата : Без точки перехода
Параметр матрицы формата : Выборочная
Идентификатор кодека : XVID
Идентификатор кодека/Подсказка : XviD
Продолжительность : 1 ч. 28 м.
Битрейт : 1123 Кбит/сек
Ширина : 624 пикселя
Высота : 352 пикселя
Соотношение сторон : 16:9
Частота кадров : 23,976 кадра/сек
Цветовое пространство : YUV
Субдискретизация насыщенности : 4:2:0
Битовая глубина : 8 бит
Тип развёртки : Прогрессивная
Метод сжатия : С потерями
Бит/(Пиксели*Кадры) : 0.213
Размер потока : 712 Мбайт (89%)
Библиотека кодирования : XviD 65
Аудио
Идентификатор : 1
Формат : MPEG Audio
Версия формата : Version 1
Профиль формата : Layer 3
Режим : Joint stereo
Расширение режима : MS Stereo
Идентификатор кодека : 55
Идентификатор кодека/Подсказка : MP3
Продолжительность : 1 ч. 28 м.
Вид битрейта : Постоянный
Битрейт : 128 Кбит/сек
Каналы : 2 канала
Частота : 48,0 КГц
Метод сжатия : С потерями
Размер потока : 81,2 Мбайт (10%)
Выравнивание : Соединение по промежуткам
Продолжительность промежутка : 42 мс. (1,00 видеокадр)
Время предзагрузки промежутка : 504 мс.
Библиотека кодирования : LAME3.99r
Настройки программы : -m j -V 4 -q 2 -lowpass 17 -b 128
-

Скриншоты




-LORN-V
Скачать

Скачать торрент!

Как скачивать? · Что такое торрент? · Рейтинг и ограничения

Сайт не распространяет и не хранит электронные версии произведений, а лишь предоставляет доступ к создаваемому пользователями каталогу ссылок на торрент-файлы, которые содержат только списки хеш-сумм


_________________
[Профиль] [ЛС]
Показать сообщения:    
Ответить на тему

Текущее время: Сегодня 17:45

Часовой пояс: GMT + 4



Вы не можете начинать темы
Вы не можете отвечать на сообщения
Вы не можете редактировать свои сообщения
Вы не можете удалять свои сообщения
Вы не можете голосовать в опросах
Вы не можете прикреплять файлы к сообщениям
Вы не можете скачивать файлы