Любовь Набби / Nabbies Love (Юдзи Накае / Yuji Nakae) [1999, Япония, Комедия, романтика, DVDRip] VO D.I.M.

Ответить на тему
 
Автор Сообщение

user ®

Стаж: 13 лет

Сообщений: 15071

Пост Пост: #1 от 30-Мар-2014 15:40

[Цитировать]

Любовь Набби / Nabbies Love
Страна: Япония
Жанр: Комедия, романтика
Год выпуска: 1999
Продолжительность: 1:31:30
Перевод: Одноголосый закадровый D.I.M.
Cубтитры: нет
Режиссер: Юдзи Накае / Yuji Nakae
В ролях: Наоми Нисида / Naomi Nishida
Дзюн Мураками / Jun Murakami
Томи Таира / Tomi Taira
Рейко Канесима / Reiko Kaneshima
Синити Цуба / Shinichi Tsuba
Описание:
Нанако бросает свою работу в Токио и возвращается
на свой родной остров, где живут её дедушка и бабушка.
Вместе с ней на остров прибывает пижонистого вида старикан.
И потом она однажды видит свою бабушку Набби в объятиях этого старика.
Оказалось, что 60 лет назад они были влюблены друг в друга,
но судьба разлучила их. Чем же сейчас закончатся их отношения...
На песни голосового перевода нет, только вшитые субтитры.
Это восемьдесят шестой фильм с моим переводом и озвучкой, выложенный здесь.
Сэмпл: http://multi-up.com/963188
Качество видео: DVDRip
Формат видео: AVI
Видео: 720*416 (16:9), 23,976 fps, MPEG-4 Visual (XviD) ~ 934 kbps avg, 0.130 bit/pixel
Аудио: MPEG Audio Layer 3, 48000Hz, stereo, 128kbps

MediaInfo

Общее
Полное имя : D:\TORENT\РАЗДАЧИ (РИПЫ)\Nabbies Love.avi
Формат : AVI
Формат/Информация : Audio Video Interleave
Размер файла : 701 Мбайт
Продолжительность : 1 ч. 31 м.
Общий поток : 1071 Кбит/сек
Программа кодирования : VirtualDubModRus 1.5.10.2 (build 2542/release)
Библиотека кодирования : VirtualDubMod build 2542/release
Видео
Идентификатор : 0
Формат : MPEG-4 Visual
Профиль формата : Advanced Simple@L5
Параметр BVOP формата : 1
Параметр QPel формата : Нет
Параметр GMC формата : Без точки перехода
Параметр матрицы формата : Выборочная
Идентификатор кодека : XVID
Идентификатор кодека/Подсказка : XviD
Продолжительность : 1 ч. 31 м.
Битрейт : 934 Кбит/сек
Ширина : 720 пикс.
Высота : 416 пикс.
Соотношение сторон : 16:9
Частота кадров : 23,976 кадр/сек
Цветовое пространство : YUV
Подвыборка цветности : 4:2:0
Битовая глубина : 8 бит
Тип развёртки : Прогрессивная
Метод сжатия : С потерями
Бит/(Пиксели*Кадры) : 0.130
Размер потока : 611 Мбайт (87%)
Библиотека кодирования : XviD 63
Аудио
Идентификатор : 1
Формат : MPEG Audio
Версия формата : Version 1
Профиль формата : Layer 3
Режим : Joint stereo
Расширение режима : MS Stereo
Идентификатор кодека : 55
Идентификатор кодека/Подсказка : MP3
Продолжительность : 1 ч. 31 м.
Вид битрейта : Постоянный
Битрейт : 128 Кбит/сек
Канал(ы) : 2 канала(ов)
Частота : 48,0 КГц
Метод сжатия : С потерями
Размер потока : 83,8 Мбайт (12%)
Выравнивание : Соединение по промежуткам
Продолжительность промежутка : 42 мс. (1,00 видеокадр)
Время предзагрузки промежутка : 504 ms
Библиотека кодирования : LAME3.98.2
Язык : Russian

Скриншот c названием фильма

Скриншоты

Скачать

Скачать торрент! Любовь Набби / Nabbies Love (Юдзи Накае / Yuji Nakae) [1999, Япония, Комедия, романтика, DVDRip] VO D.I.M.

Как скачивать? · Что такое торрент? · Рейтинг и ограничения

Сайт не распространяет и не хранит электронные версии произведений, а лишь предоставляет доступ к создаваемому пользователями каталогу ссылок на торрент-файлы, которые содержат только списки хеш-сумм

[Профиль] [ЛС]
Показать сообщения:    
Ответить на тему

Текущее время: Сегодня 21:17

Часовой пояс: GMT + 4



Вы не можете начинать темы
Вы не можете отвечать на сообщения
Вы не можете редактировать свои сообщения
Вы не можете удалять свои сообщения
Вы не можете голосовать в опросах
Вы не можете прикреплять файлы к сообщениям
Вы не можете скачивать файлы