Настя и Егор (Алексей Балабанов) [1989, драма, VHSRip]

Ответить на тему
 
Автор Сообщение

user ®

Стаж: 7 лет 7 месяцев

Сообщений: 20008

Пост Пост: #1 от 30-Мар-2014 00:45

[Цитировать]

Настя и Егор
Жанр: драма
Год выпуска: 1989
Продолжительность: 00:32:12
Режиссёр: Алексей Балабанов
В ролях: Настя Полева, Егор Белкин, Александр Пантыкин, Вячеслав Бутусов, Владимир Назимов
Описание: В 1986 года еще студент Алексей Балабанов снял о музыканте Егоре Белкине фильм «У меня нет друга». В 1989 году дипломной работой режиссера стала картина «Настя и Егор», главными персонажами которой как можно догадаться по названию стали Настя Полева и Егор Белкин. В ходе получасовой полуигровой-полудокументальной ленты Егор рассуждает о жизни, о музыке и о своем месте в жизни и музыке, Настя размышляет о любви и о своем месте в любви. Прямо на глазах зрителя рождается песня «Танец на цыпочках». Балабанов уверял, что фильм чисто «учебный», но вскоре он был показан по центральному ТВ.
Качество видео: VHSRip
Формат видео: AVI
Видео: 640x352 (1.82:1), 25 fps, XviD build 50 ~2518 kbps avg, 0.45 bit/pixel
Аудио: 48 kHz, MPEG Layer 3, 2 ch, ~224.00 kbps avg

MediaInfo

General
Complete name : M:\Настя и Егор.avi
Format : AVI
Format/Info : Audio Video Interleave
File size : 634 MiB
Duration : 32mn 12s
Overall bit rate : 2 752 Kbps
Writing application : VirtualDubMod 1.5.10.3 | www.virtualdub-fr.org || (build 2550/release)
Writing library : VirtualDub build 29808/release
Video
ID : 0
Format : MPEG-4 Visual
Format profile : Advanced Simple@L5
Format settings, BVOP : Yes
Format settings, QPel : No
Format settings, GMC : No warppoints
Format settings, Matrix : Default (MPEG)
Codec ID : XVID
Codec ID/Hint : XviD
Duration : 32mn 12s
Bit rate : 2 518 Kbps
Width : 640 pixels
Height : 352 pixels
Display aspect ratio : 16:9
Frame rate : 25.000 fps
Resolution : 8 bits
Colorimetry : 4:2:0
Scan type : Progressive
Bits/(Pixel*Frame) : 0.447
Stream size : 580 MiB (92%)
Writing library : XviD 1.2.1 (UTC 2008-12-04)
Audio
ID : 1
Format : MPEG Audio
Format version : Version 1
Format profile : Layer 3
Mode : Joint stereo
Format_Settings_ModeExtension : MS Stereo
Codec ID : 55
Codec ID/Hint : MP3
Duration : 32mn 12s
Bit rate mode : Constant
Bit rate : 224 Kbps
Channel(s) : 2 channels
Sampling rate : 48.0 KHz
Stream size : 51.6 MiB (8%)
Alignment : Aligned on interleaves
Interleave, duration : 40 ms (1.00 video frame)
Interleave, preload duration : 504 ms
Writing library : LAME3.98.4ЄЄЄЄЄЄЄЄЄЄ

Скриншот c названием фильма

Скриншоты

Скачать

Скачать торрент!

Как скачивать? · Что такое торрент? · Рейтинг и ограничения

Сайт не распространяет и не хранит электронные версии произведений, а лишь предоставляет доступ к создаваемому пользователями каталогу ссылок на торрент-файлы, которые содержат только списки хеш-сумм

[Профиль] [ЛС]
Показать сообщения:    
Ответить на тему

Текущее время: Сегодня 13:53

Часовой пояс: GMT + 4



Вы не можете начинать темы
Вы не можете отвечать на сообщения
Вы не можете редактировать свои сообщения
Вы не можете удалять свои сообщения
Вы не можете голосовать в опросах
Вы не можете прикреплять файлы к сообщениям
Вы не можете скачивать файлы