Айнудизм (аменция с аутизмом в квадрате) (Сергей Айнутдинов) [1994, Рисованный мультфильм, SATRip]

Ответить на тему
 
Автор Сообщение

user ®

Стаж: 7 лет 7 месяцев

Сообщений: 20008

Пост Пост: #1 от 29-Мар-2014 21:35

[Цитировать]

Айнудизм (аменция с аутизмом в квадрате)
Страна: Россия
Жанр: Рисованный мультфильм
Продолжительность: 00:16:34
Год выпуска: 1994
Русские субтитры: нет
Режиссёр: Сергей Айнутдинов
Описание: 3-я серия из философской анимационной трилогии. Об оживших рисунках, человечной Смерти и докторах-убийцах. Невесёлый портрет нашего абсурдного мира... Наблюдение общества шестидесятых, семидесятых и восьмидесятых, сделанное посредством средств оживления. (для взрослых)
Доп. информация: «Свердловская киностудия»
Сценарий: С.Айнутдинов
Аниматоры: Н.Беликова,В.Бурмистров,А.Евладов,Д.Ганиева
Оператор:В.Константинов,С.Решетников,В.Сумин
Монтаж:Л.Путятина
Качество: SATRip
Формат: AVI
Видео: 704x528 (1.33:1), 25 fps, XviD MPEG-4 ~2148 kbps avg, 0.23 bit/pixel
Аудио: 48 kHz, AC3 Dolby Digital, 2/0 (L,R) ch, ~192.00 kbps avg
Субтитры: нет

Подробные технические данные

Format : AVIFormat/Info : Audio Video InterleaveFile size : 279 MiBDuration : 16mn 34sOverall bit rate : 2 350 KbpsWriting application : VirtualDubModRus 1.5.10.2 (build 2542/release)Copyright : : SATRip by dvdss
VideoID : 0Format : MPEG-4 VisualFormat profile : Advanced Simple@L5Format settings, BVOP : 2Format settings, QPel : NoFormat settings, GMC : No warppointsFormat settings, Matrix : CustomCodec ID : XVIDCodec ID/Hint : XviDDuration : 16mn 34sBit rate : 2 149 KbpsWidth : 704 pixelsHeight : 528 pixelsDisplay aspect ratio : 1.222Original display aspect ratio : 4:3Frame rate : 25.000 fpsColor space : YUVChroma subsampling : 4:2:0Bit depth : 8 bitsScan type : ProgressiveCompression mode : LossyBits/(Pixel*Frame) : 0.231Stream size : 255 MiB (91%)Writing library : XviD 65
AudioID : 1Format : AC-3Format/Info : Audio Coding 3Mode extension : CM (complete main)Format settings, Endianness : BigCodec ID : 2000Duration : 16mn 34sBit rate mode : ConstantBit rate : 192 KbpsChannel(s) : 2 channelsChannel positions : Front: L RSampling rate : 48.0 KHzBit depth : 16 bitsCompression mode : LossyStream size : 22.8 MiB (8%)Alignment : Split accross interleavesInterleave, duration : 40 ms (1.00 video frame)Interleave, preload duration : 500 ms

Скриншоты

Скачать

Скачать торрент!

Как скачивать? · Что такое торрент? · Рейтинг и ограничения

Сайт не распространяет и не хранит электронные версии произведений, а лишь предоставляет доступ к создаваемому пользователями каталогу ссылок на торрент-файлы, которые содержат только списки хеш-сумм

[Профиль] [ЛС]
Показать сообщения:    
Ответить на тему

Текущее время: Сегодня 17:49

Часовой пояс: GMT + 4



Вы не можете начинать темы
Вы не можете отвечать на сообщения
Вы не можете редактировать свои сообщения
Вы не можете удалять свои сообщения
Вы не можете голосовать в опросах
Вы не можете прикреплять файлы к сообщениям
Вы не можете скачивать файлы